DNS SERVER AENDERNum der staatlichen Zensur zu umgehen. Sollten wir von eurem Provider geseprrt werden, nutzt den TOR BROWSER oder ändert euren DNS SERVER.

Filmwünsche können bei uns im Forum abgegeben werden

Wir Speichern Nicht




 
 
 
Top Releases
Peter.Hase.2018.German.DTS.D...
Peter.Hase.2018.German.DTS.D...
Peter.Hase.2018.MULTI.COMPLE...
Battle.Of.The.Sexes.2017.MUL...
Tomb.Raider.2018.German.DTS....
Tomb.Raider.2018.German.DTS....
A.Quiet.Place.2018.COMPLETE....
The.Equalizer.2014.COMPLETE....
A.Quiet.Place.2018.German.DL...
A.Quiet.Place.2018.German.DL...

Cinedubs
Die.Frau.die.vorausgeht.2017...
Die.Frau.die.vorausgeht.2017...
Super.Troopers.2.2018.German...
Thoroughbreds.2017.German.AC...
Thoroughbreds.2017.German.AC...
Vom.Ende.einer.Geschichte.20...
Vom.Ende.einer.Geschichte.20...
I.Feel.Pretty.2018.German.AC...
I.Feel.Pretty.2018.German.AC...
Wahrheit.oder.Pflicht.UNCUT....

Neuerscheinungen 2017-18
How.It.Ends.2018.German.DL.1...
Der.Glueckspilz.1966.German....
Der.Glueckspilz.1966.German....
Helene Fischer.Live.Die Aren...
Die.Trapp-Familie.1956.Die.T...
Der.Zerstreute.1970.German.1...
Der.Zerstreute.1970.German.7...
Avengers.Grimm.2.Time.Wars.2...
Avengers.Grimm.2.Time.Wars.2...
Bring.mir.den.Kopf.von.Alfre...

XXX
The.Innocence.Of.Youth.5.XXX...
My.Sexy.Kittens.55.XXX.720P....
TeenCurves.18.07.04.Skylar.S...
FantasyMassage.18.07.04.Merc...
MommyBlowsBest.18.07.04.Kris...
ATKGirlfriends.18.07.04.Emil...
ClubSeventeen.18.07.04.Kamil...
ClubSeventeen.18.07.04.Peach...
GloryHoleSecrets.18.07.04.So...
JaysPOV.18.07.03.Joseline.Ke...
KarupsOW.18.07.04.Alesia.Ple...
KarupsPC.18.07.04.Lullu.Gun....
LadyVoyeurs.18.07.04.Ella.Ro...
SexArt.18.07.04.Cherry.Kiss....
MetArtX.18.07.04.Ivy.Wolfe.L...
PlumperPass.18.07.04.Jessica...
Yonitale.18.07.04.Sybille.Y....
DaneJones.18.07.04.Amirah.Ad...
GirlsOutWest.18.07.04.Felici...
Hustler.18.07.04.Lichelle.Ma...

3D
Ready.Player.One.2018.3D.HOU...
Ready.Player.One.2018.3D.HSB...
Ready.Player.One.3D.2018.MUL...
Black.Panther.3D.2018.MULTI....
Black.Panther.3D.HOU.2018.Ge...
Black.Panther.3D.HSBS.2018.G...
Best.of.3D.vol.04.-.06.GERMA...
Tomb.Raider.2018.3D.HOU.Germ...
Tomb.Raider.2018.3D.HSBS.Ger...
Tomb.Raider.2018.3D.COMPLETE...
Zombies.Ueberlebe.die.Untote...
Der.Dschungel.Der.Zauber.ein...
Penthouse.Presents.Sexy.Sing...
The.LEGO.Ninjago.Movie.3D.20...
Zombies.Ueberlebe.die.Untote...

Old_Stuff
Meine.liebe.Rabenmutter.germ...
Da.Vincis.Demons.S01.Complet...
Eragon.Das.Vermaechtnis.der....
Adele.und.das.Geheimnis.des....
Die.fabelhafte.Welt.der.Amel...
Haus.des.Geldes.S01.German.M...
How.I.Met.Your.Mother.S01.Ge...
The.Dark.Knight.Rises.2012.M...
Weissensee.S03.2015.GERMAN.C...
Weissensee.S01+S02.2010.GERM...
Die.Unglaublichen.-.The.Incr...
Der.grosse.Trick.1978.German...
Sully.2016.MULTi.COMPLETE.BL...
Tremors.3.Die.neue.Brut.2001...
Die.Indianer.von.Cleveland.2...

Filme
Der.Glueckspilz.1966.German....
Helden.der.Propaganda.Sportl...
Emsland.Power.-.Von.null.auf...
Gotham.S04.GERMAN.720p.HDTV....
Supergirl.S03.GERMAN.720p.HD...
The.Americans.2013.S05.GERMA...
The.Flash.2014.S04.GERMAN.72...
Marvels.Runaways.S01.COMPLET...
Marvels.Runaways.S01.COMPLET...
Six.S02.German.DD+51.DL.1080...
Six.S02.German.DD+51.DL.720p...
Homeland.S07.GERMAN.DUBBED.7...
Die.Jagd.1981.German.1080p.W...
Der.Effekt.des.Wassers.2016....
Doctor.Thorne.S01D01-2.MULTi...
Schwarzwaelder.Kirsch.1958.G...
Die.drei.Musketiere.The.Thre...
Ein.Wiedersehen.mit.Kenia.GE...
Geheimnisvolle.Orte.Der.Temp...
Die.Meute.der.Erben.2001.GER...
Spaceballs.1987.German.DUBBE...
7.Below.Haus.der.dunklen.See...
Martial.Law.III.Toedliches.K...
Martial.Law.III.Toedliches.K...

 
 
Your.Name.-.Gestern.heute.und.fuer.immer.2016.German.AC3.1080p.BluRay.x265-FuN
Jahr: 2016
Genre: Animation, Drama, Fantasy
Sprache: Deutsch AC3
Laufzeit: 1h 47mn
Bitrate: 1 714 Kbps
Format: MKV
Größe: 1.28 GiB
Release:

Beschreibung:

Frustriert von ihrem langweiligen Leben in der Provinz, wünscht sich die Schülerin Mitsuha nichts sehnlicher, als ein aufregendes Leben in der Großstadt – und erwacht eines Tages im Körper von Taki, einem Schüler aus Tokio. Im gleichen Atemzug erwacht Taki in Mitsuhas Körper und fortan finden diese Wechsel regelmäßig statt. Bald beginnen die beiden das Leben des jeweils anderen zu beeinflussen und kommen sich auf diese Weise langsam näher, bis der Körpertusch eines Tages abrupt endet. Fasziniert von Mitsuha, beschließt Taki sie mit den wenigen Erinnerungen die er hat ausfindig zu machen und stößt bei seiner Suche auf einen kleinen Küstenort, der drei Jahre zuvor vom Einschlag eines Kometenfragments zerstört wurde und viele Todesopfer forderte – darunter auch Mitsuha. Davon überzeugt sie und den Ort retten zu können, versucht er einen erneuten Körpertausch heraufzubeschwören. Doch wird die Zeit reichen die Menschen vor der nahenden Katastrophe zu warnen und sich und seine große Liebe in Sicherheit zu bringen?




Format                                   : Matroska
Format version                           : Version 4 / Version 2
File size                                : 1.28 GiB
Duration                                 : 1h 47mn
Overall bit rate                         : 1 714 Kbps
Encoded date                             : UTC 2018-05-21 11:36:56
Writing application                      : mkvmerge v22.0.0 ('At The End Of The World') 64-bit
Writing library                          : libebml v1.3.5 + libmatroska v1.4.8

Video
ID                                       : 1
Format                                   : HEVC
Format/Info                              : High Efficiency Video Coding
Format profile                           : Main@L4.0
Codec ID                                 : V_MPEGH/ISO/HEVC
Duration                                 : 1h 47mn
Bit rate                                 : 1 296 Kbps
Width                                    : 1 920 pixels
Height                                   : 1 080 pixels
Display aspect ratio                     : 16:9
Frame rate mode                          : Constant
Frame rate                               : 24.000 fps
Color space                              : YUV
Chroma subsampling                       : 4:2:0
Bit depth                                : 8 bits
Bits/(Pixel*Frame)                       : 0.026
Stream size                              : 995 MiB (76%)
Writing library                          : x265 2.6:[Linux][GCC 5.4.0][64 bit] 8bit+10bit+12bit
Encoding settings                        : cpuid=1056767 / frame-threads=2 / wpp / no-pmode / no-pme / no-psnr / no-ssim / log-level=2 / input-csp=1 / input-res=1920x1080 / interlace=0 / total-frames=0 / level-idc=0 / high-tier=1 / uhd-bd=0 / ref=3 / no-allow-non-conformance / no-repeat-headers / annexb / no-aud / no-hrd / info / hash=0 / no-temporal-layers / open-gop / min-keyint=24 / keyint=240 / bframes=4 / b-adapt=2 / b-pyramid / bframe-bias=0 / rc-lookahead=20 / lookahead-slices=6 / scenecut=40 / no-intra-refresh / ctu=64 / min-cu-size=8 / no-rect / no-amp / max-tu-size=32 / tu-inter-depth=1 / tu-intra-depth=1 / limit-tu=0 / rdoq-level=0 / dynamic-rd=0,00 / no-ssim-rd / signhide / no-tskip / nr-intra=0 / nr-inter=0 / no-constrained-intra / no-strong-intra-smoothing / max-merge=2 / limit-refs=3 / no-limit-modes / me=1 / subme=2 / merange=57 / temporal-mvp / weightp / no-weightb / no-analyze-src-pics / deblock=0:0 / no-sao / no-sao-non-deblock / rd=3 / no-early-skip / rskip / no-fast-intra / no-tskip-fast / no-cu-lossless / no-b-intra / no-splitrd-skip / rdpenalty=0 / psy-rd=2,00 / psy-rdoq=0,00 / no-rd-refine / analysis-reuse-mode=0 / no-lossless / cbqpoffs=0 / crqpoffs=0 / rc=crf / crf=23,0 / qcomp=0,60 / qpstep=4 / stats-write=0 / stats-read=0 / ipratio=1,40 / pbratio=1,30 / aq-mode=1 / aq-strength=1,00 / cutree / zone-count=0 / no-strict-cbr / qg-size=32 / no-rc-grain / qpmax=69 / qpmin=0 / no-const-vbv / sar=1 / overscan=0 / videoformat=5 / range=0 / colorprim=1 / transfer=1 / colormatrix=1 / chromaloc=0 / display-window=0 / max-cll=0,0 / min-luma=0 / max-luma=255 / log2-max-poc-lsb=8 / vui-timing-info / vui-hrd-info / slices=1 / no-opt-qp-pps / no-opt-ref-list-length-pps / no-multi-pass-opt-rps / scenecut-bias=0,05 / no-opt-cu-delta-qp / no-aq-motion / no-hdr / no-hdr-opt / no-dhdr10-opt / analysis-reuse-level=5 / scale-factor=0 / refine-intra=0 / refine-inter=0 / refine-mv=0 / no-limit-sao / ctu-info=0 / no-lowpass-dct / refine-mv-type=0 / copy-pic=1
Default                                  : Yes
Forced                                   : No
DURATION                                 : 01:47:19.125000000
NUMBER_OF_FRAMES                         : 154539
NUMBER_OF_BYTES                          : 1046057601
_STATISTICS_WRITING_APP                  : mkvmerge v22.0.0 ('At The End Of The World') 64-bit
_STATISTICS_WRITING_DATE_UTC             : 2018-05-21 11:36:56
_STATISTICS_TAGS                         : BPS DURATION NUMBER_OF_FRAMES NUMBER_OF_BYTES

Audio
ID                                       : 2
Format                                   : AC-3
Format/Info                              : Audio Coding 3
Mode extension                           : CM (complete main)
Format settings, Endianness              : Big
Codec ID                                 : A_AC3
Duration                                 : 1h 47mn
Bit rate mode                            : Constant
Bit rate                                 : 384 Kbps
Channel(s)                               : 6 channels
Channel positions                        : Front: L C R, Side: L R, LFE
Sampling rate                            : 48.0 KHz
Bit depth                                : 16 bits
Compression mode                         : Lossy
Stream size                              : 295 MiB (22%)
Title                                    : Surround
Language                                 : German
Default                                  : Yes
Forced                                   : Yes
DURATION                                 : 01:47:19.104000000
NUMBER_OF_FRAMES                         : 201222
NUMBER_OF_BYTES                          : 309076992
_STATISTICS_WRITING_APP                  : mkvmerge v22.0.0 ('At The End Of The World') 64-bit
_STATISTICS_WRITING_DATE_UTC             : 2018-05-21 11:36:56
_STATISTICS_TAGS                         : BPS DURATION NUMBER_OF_FRAMES NUMBER_OF_BYTES

Text #1
ID                                       : 3
Format                                   : PGS
Codec ID                                 : S_HDMV/PGS
Codec ID/Info                            : The same subtitle format used on BDs/HD-DVDs
Title                                    : forced
Language                                 : German
Default                                  : Yes
Forced                                   : Yes
DURATION                                 : 01:45:35.967000000
NUMBER_OF_FRAMES                         : 2401
NUMBER_OF_BYTES                          : 22608606
_STATISTICS_WRITING_APP                  : mkvmerge v22.0.0 ('At The End Of The World') 64-bit
_STATISTICS_WRITING_DATE_UTC             : 2018-05-21 11:36:56
_STATISTICS_TAGS                         : BPS DURATION NUMBER_OF_FRAMES NUMBER_OF_BYTES

Text #2
ID                                       : 4
Format                                   : PGS
Codec ID                                 : S_HDMV/PGS
Codec ID/Info                            : The same subtitle format used on BDs/HD-DVDs
Title                                    : full
Language                                 : German
Default                                  : No
Forced                                   : No
DURATION                                 : 01:37:49.801000000
NUMBER_OF_FRAMES                         : 62
NUMBER_OF_BYTES                          : 520926
_STATISTICS_WRITING_APP                  : mkvmerge v22.0.0 ('At The End Of The World') 64-bit
_STATISTICS_WRITING_DATE_UTC             : 2018-05-21 11:36:56
_STATISTICS_TAGS                         : BPS DURATION NUMBER_OF_FRAMES NUMBER_OF_BYTES

Menu
00:00:00.000                             : :Chapter 1
00:08:59.125                             : :Chapter 2
00:17:43.792                             : :Chapter 3
00:27:26.750                             : :Chapter 4
00:37:47.083                             : :Chapter 5
00:46:13.583                             : :Chapter 6
00:53:20.542                             : :Chapter 7
01:04:00.833                             : :Chapter 8
01:12:45.792                             : :Chapter 9
01:23:02.167                             : :Chapter 10
01:32:43.667                             : :Chapter 11
01:41:30.583                             : :Chapter 12



Download:
Share Online Share OnlineShare OnlineShare Online
 

Kommentare