Filecrypt zeigt vereinzelt Files als "n/a". Die Downloads sind trotzdem komplett.

DNS SERVER AENDERNum der staatlichen Zensur zu umgehen. Sollten wir von eurem Provider geseprrt werden, nutzt den TOR BROWSER oder ändert euren DNS SERVER.

Filmwünsche können bei uns im Forum abgegeben werden

Wir Speichern Nicht




 
 
 
Top Releases
Cam.2018.German.DL.1080p.WEB...
Cam.2018.German.DL.720p.WEB....
Teen.Titans.Go.To.the.Movies...
The.Ballad.of.Buster.Scruggs...
Teen.Titans.Go.To.the.Movies...
The.Ballad.of.Buster.Scruggs...
Logan.The.Wolverine.2017.NOI...
Mandy.2018.German.DL.1080p.B...
Mandy.2018.MULTi.COMPLETE.BL...
Zoe.2018.German.AC3.DL.1080p...

Cinedubs
Christopher.Robin.German.DL....
Christopher.Robin.German.DL....
A.Star.Is.Born.German.DL.AC3...
A.Star.Is.Born.German.DL.AC3...
Mission.Impossible.Fallout.G...
Mission.Impossible.Fallout.G...
Sicario.2.2018.German.DL.AC3...
Juliet.Naked.2018.GERMAN.DL....
Juliet.Naked.2018.GERMAN.DL....
10x10.2018.German.AC3D.DL.10...

Neuerscheinungen 2017-18
Terminal.Rache.war.nie.schoe...
10x10.2018.MULTi.COMPLETE.BL...
In.Darkness.Die.Wahrheit.lie...
In.Darkness.Die.Wahrheit.lie...
Terminal.Rache.war.nie.schoe...
Terminal.Rache.war.nie.schoe...
Christmas.Wedding.Planner.20...
Christmas.Wedding.Planner.20...
Prinzessinnentausch.2018.Ger...
Prinzessinnentausch.2018.Ger...

XXX
LustyGrandmas.18.04.02.Sila....
PlayboyPlus.18.10.29.Jenessa...
Old-n-Young.18.10.27.Blue.Sk...
NewSensations.18.10.31.Emily...
OnlyBlowJob.18.10.04.Rose.XX...
PlayboyPlus.18.10.28.Playmat...
LustyGrandmas.18.04.08.Viol....
PixAndVideo.18.10.29.Marica....
Passion-HD.18.10.31.Megan.Wi...
NHLPCentral.18.10.31.Tindra....
Nubiles.18.10.28.Monna.Pleas...
NetGirl.18.10.24.Geneva.XXX....
LustyGrandmas.18.03.29.Dolly...
GirlsOutWest.18.10.31.Lilo.X...
NetVideoGirls.18.10.16.Melis...
KarupsHA.18.10.31.Casey.Cumz...
GirlsDoPorn.E482.21.Years.Ol...
Nubiles.18.10.28.Cleo.Mijare...
LustyGrandmas.18.03.15.Saman...
GirlsDoPorn.E481.19.Years.Ol...

3D
Skyscraper.3D.2018.MULTi.COM...
Ant-Man.And.The.Wasp.3D.2018...
Ant.Man.and.the.Wasp.3D.2018...
Die.Unglaublichen.2.3D.2018....
Die.Unglaublichen.2.2018.3D....
Die.Unglaublichen.2.2018.3D....
Sharknado.6.The.Last.One.3D....
Deep.Kleine.Helden.der.Tiefs...
Deep.3D.2017.MULTI.COMPLETE....
Detective.Dee.und.die.Legend...
Detective.Dee.und.die.Legend...
Skyscraper.3D.German.DL.AC3....
Ant-Man.and.the.Wasp.2018.3D...
Jurassic.World.Das.gefallene...
Jurassic.World.Das.gefallene...

Old_Stuff
Detective.Dee.und.das.Geheim...
Detective.Dee.Und.Der.Fluch....
Ghost.Rider.Spirit.of.Vengea...
Species.IV.Das.Erwachen.2007...
Species.IV.Das.Erwachen.2007...
Hotel.Transsilvanien.2012.Ge...
The.Dead.2010.German.DL.1080...
The.Dead.2.India.2013.German...
Britney.Spears.Live.The.Femm...
Buffy.The.Vampire.Slayer.199...
IMAX.Ride.Around.The.World.2...
Schimanski.-.Duisburg.Ruhror...
Akte.X.S02.German.DTS.DL.108...
How.I.Met.Your.Mother.S02.Ge...
Akte.X.S01.German.DTS.DL.108...

Filme
Skyscraper.2018.German.DL.21...
Skyscraper.2018.German.DL.21...
Slender.Man.2018.German.AC3....
Die.Pest.S01.D01.MULTi.COMPL...
Clive.Barkers.Book.of.Blood....
Chuka.1967.German.Uncut.AC3D...
Romeo.Is.Bleeding.1993.Germa...
Solo.1996.German.AC3D.DL.108...
To.Kill.a.Man.Rache.ist.bitt...
TJ.Next.Generation.2007.Germ...
TO.A.Space.Fantasy.2009.Germ...
Urlaub.in.Hollywood.1945.Ger...
Mamma.Mia.Here.We.Go.Again.2...
Tinkerbell.2008.German.DTS.D...
Tintenherz.German.DL.1080p.B...
Tisch.und.Bett.1970.German.1...
The.Legend.of.Hercules.2014....
Maleika.2017.GERMAN.DOKU.216...
The.Darkest.Minds.Die.Ueberl...
Aus.dem.Dschungel.in.den.Dsc...
Der.Grosse.Diktator.1940.Ger...
Plaesier.1952.German.AC3D.DL...
Die.Truman.Show.1998.German....
Crocodile.Dundee.Extended.Cu...

 
 
Counter.Investigation.2007.German.AC3D.1080p.FR-BluRay.x265-FuN
Jahr: 2007
Genre: Kriegsfilm
Sprache: Deutsch AC3
Laufzeit: 1h 24mn
Bitrate: 2 045 Kbps
Format: MKV
Größe: 1.20 GiB
Release:

Beschreibung:

An dem Tag, an dem seine kleine Tochter Emilie vergewaltigt und ermordet wird, bricht die Welt des Polizisten Richard Malinowski zusammen. Gequält von Selbstvorwürfen und Schuldgefühlen kann Malinowski kaum noch schlafen oder essen. Überraschend schnell wird ein Verdächtiger gefasst. Obwohl stichhaltige Beweise fehlen, wird Daniel Eckman aufgrund von Indizien zu einer lebenslangen Haftstrafe verurteilt. Doch auch jetzt findet Malinowski keine Ruhe. Für ihn ist der Fall mit der Urteilsverkündung noch lange nicht abgeschlossen. Einige Monate später erhält er einen Brief, in dem Eckman eindringlich seine Unschuld beteuert. Und allmählich nimmt Malinowskis perfekter Racheplan Gestalt an...




Format                                   : Matroska
Format version                           : Version 4 / Version 2
File size                                : 1.20 GiB
Duration                                 : 1h 24mn
Overall bit rate                         : 2 045 Kbps
Encoded date                             : UTC 2018-05-19 05:06:47
Writing application                      : mkvmerge v22.0.0 ('At The End Of The World') 64-bit
Writing library                          : libebml v1.3.5 + libmatroska v1.4.8
DURATION                                 : 01:24:03.744000000
NUMBER_OF_FRAMES                         : 157617
NUMBER_OF_BYTES                          : 282449664
_STATISTICS_WRITING_APP                  : mkvmerge v22.0.0 ('At The End Of The World') 64-bit
_STATISTICS_WRITING_DATE_UTC             : 2018-05-19 05:06:47
_STATISTICS_TAGS                         : BPS DURATION NUMBER_OF_FRAMES NUMBER_OF_BYTES

Video
ID                                       : 1
Format                                   : HEVC
Format/Info                              : High Efficiency Video Coding
Format profile                           : Main@L4.0
Codec ID                                 : V_MPEGH/ISO/HEVC
Duration                                 : 1h 24mn
Bit rate                                 : 1 173 Kbps
Width                                    : 1 916 pixels
Height                                   : 816 pixels
Display aspect ratio                     : 2.35:1
Frame rate mode                          : Constant
Frame rate                               : 23.976 fps
Color space                              : YUV
Chroma subsampling                       : 4:2:0
Bit depth                                : 8 bits
Bits/(Pixel*Frame)                       : 0.031
Stream size                              : 705 MiB (57%)
Writing library                          : x265 2.1:[Linux][GCC 5.4.0][64 bit] 8bit
Encoding settings                        : wpp / ctu=64 / min-cu-size=8 / max-tu-size=32 / tu-intra-depth=1 / tu-inter-depth=1 / me=1 / subme=2 / merange=57 / no-rect / no-amp / max-merge=2 / temporal-mvp / no-early-skip / rskip / rdpenalty=0 / no-tskip / no-tskip-fast / no-strong-intra-smoothing / no-lossless / no-cu-lossless / no-constrained-intra / no-fast-intra / open-gop / no-temporal-layers / interlace=0 / keyint=240 / min-keyint=24 / scenecut=40 / rc-lookahead=20 / lookahead-slices=5 / bframes=4 / bframe-bias=0 / b-adapt=2 / ref=3 / limit-refs=3 / no-limit-modes / weightp / no-weightb / aq-mode=1 / qg-size=32 / aq-strength=1,00 / cbqpoffs=0 / crqpoffs=0 / rd=3 / psy-rd=2,00 / rdoq-level=0 / psy-rdoq=0,00 / log2-max-poc-lsb=8 / no-rd-refine / signhide / deblock=0:0 / no-sao / no-sao-non-deblock / b-pyramid / cutree / no-intra-refresh / rc=crf / crf=23,0 / qcomp=0,60 / qpmin=0 / qpmax=69 / qpstep=4 / ipratio=1,40 / pbratio=1,30
Default                                  : Yes
Forced                                   : No
DURATION                                 : 01:24:03.747000000
NUMBER_OF_FRAMES                         : 120929
NUMBER_OF_BYTES                          : 763688257
_STATISTICS_WRITING_APP                  : mkvmerge v22.0.0 ('At The End Of The World') 64-bit
_STATISTICS_WRITING_DATE_UTC             : 2018-05-19 05:06:47
_STATISTICS_TAGS                         : BPS DURATION NUMBER_OF_FRAMES NUMBER_OF_BYTES

Audio #1
ID                                       : 2
Format                                   : AC-3
Format/Info                              : Audio Coding 3
Mode extension                           : CM (complete main)
Format settings, Endianness              : Big
Codec ID                                 : A_AC3
Duration                                 : 1h 24mn
Bit rate mode                            : Constant
Bit rate                                 : 448 Kbps
Channel(s)                               : 6 channels
Channel positions                        : Front: L C R, Side: L R, LFE
Sampling rate                            : 48.0 KHz
Bit depth                                : 16 bits
Compression mode                         : Lossy
Delay relative to video                  : -5ms
Stream size                              : 269 MiB (22%)
Title                                    : Surround
Language                                 : German
Default                                  : Yes
Forced                                   : Yes
DURATION                                 : 01:24:03.616000000
NUMBER_OF_FRAMES                         : 157613
NUMBER_OF_BYTES                          : 242093568
_STATISTICS_WRITING_APP                  : mkvmerge v22.0.0 ('At The End Of The World') 64-bit
_STATISTICS_WRITING_DATE_UTC             : 2018-05-19 05:06:47
_STATISTICS_TAGS                         : BPS DURATION NUMBER_OF_FRAMES NUMBER_OF_BYTES

Audio #2
ID                                       : 3
Format                                   : AC-3
Format/Info                              : Audio Coding 3
Mode extension                           : CM (complete main)
Format settings, Endianness              : Big
Codec ID                                 : A_AC3
Duration                                 : 1h 24mn
Bit rate mode                            : Constant
Bit rate                                 : 384 Kbps
Channel(s)                               : 6 channels
Channel positions                        : Front: L C R, Side: L R, LFE
Sampling rate                            : 48.0 KHz
Bit depth                                : 16 bits
Compression mode                         : Lossy
Delay relative to video                  : -5ms
Stream size                              : 231 MiB (19%)
Title                                    : Surround
Language                                 : French
Default                                  : No
Forced                                   : No



Download:
Share Online Share OnlineShare OnlineShare Online
 

Kommentare