DNS SERVER AENDERNum der staatlichen Zensur zu umgehen. Sollten wir von eurem Provider geseprrt werden, nutzt den TOR BROWSER oder ändert euren DNS SERVER.

Filmwünsche können bei uns im Forum abgegeben werden

Wir Speichern Nicht




 
 
 
Top Releases
Peter.Hase.2018.German.DTS.D...
Peter.Hase.2018.German.DTS.D...
Peter.Hase.2018.MULTI.COMPLE...
Battle.Of.The.Sexes.2017.MUL...
Tomb.Raider.2018.German.DTS....
Tomb.Raider.2018.German.DTS....
A.Quiet.Place.2018.COMPLETE....
The.Equalizer.2014.COMPLETE....
A.Quiet.Place.2018.German.DL...
A.Quiet.Place.2018.German.DL...

Cinedubs
Die.Frau.die.vorausgeht.2017...
Die.Frau.die.vorausgeht.2017...
Super.Troopers.2.2018.German...
Thoroughbreds.2017.German.AC...
Thoroughbreds.2017.German.AC...
Vom.Ende.einer.Geschichte.20...
Vom.Ende.einer.Geschichte.20...
I.Feel.Pretty.2018.German.AC...
I.Feel.Pretty.2018.German.AC...
Wahrheit.oder.Pflicht.UNCUT....

Neuerscheinungen 2017-18
How.It.Ends.2018.German.DL.1...
Der.Glueckspilz.1966.German....
Der.Glueckspilz.1966.German....
Helene Fischer.Live.Die Aren...
Die.Trapp-Familie.1956.Die.T...
Der.Zerstreute.1970.German.1...
Der.Zerstreute.1970.German.7...
Avengers.Grimm.2.Time.Wars.2...
Avengers.Grimm.2.Time.Wars.2...
Bring.mir.den.Kopf.von.Alfre...

XXX
The.Innocence.Of.Youth.5.XXX...
My.Sexy.Kittens.55.XXX.720P....
TeenCurves.18.07.04.Skylar.S...
FantasyMassage.18.07.04.Merc...
MommyBlowsBest.18.07.04.Kris...
ATKGirlfriends.18.07.04.Emil...
ClubSeventeen.18.07.04.Kamil...
ClubSeventeen.18.07.04.Peach...
GloryHoleSecrets.18.07.04.So...
JaysPOV.18.07.03.Joseline.Ke...
KarupsOW.18.07.04.Alesia.Ple...
KarupsPC.18.07.04.Lullu.Gun....
LadyVoyeurs.18.07.04.Ella.Ro...
SexArt.18.07.04.Cherry.Kiss....
MetArtX.18.07.04.Ivy.Wolfe.L...
PlumperPass.18.07.04.Jessica...
Yonitale.18.07.04.Sybille.Y....
DaneJones.18.07.04.Amirah.Ad...
GirlsOutWest.18.07.04.Felici...
Hustler.18.07.04.Lichelle.Ma...

3D
Ready.Player.One.2018.3D.HOU...
Ready.Player.One.2018.3D.HSB...
Ready.Player.One.3D.2018.MUL...
Black.Panther.3D.2018.MULTI....
Black.Panther.3D.HOU.2018.Ge...
Black.Panther.3D.HSBS.2018.G...
Best.of.3D.vol.04.-.06.GERMA...
Tomb.Raider.2018.3D.HOU.Germ...
Tomb.Raider.2018.3D.HSBS.Ger...
Tomb.Raider.2018.3D.COMPLETE...
Zombies.Ueberlebe.die.Untote...
Der.Dschungel.Der.Zauber.ein...
Penthouse.Presents.Sexy.Sing...
The.LEGO.Ninjago.Movie.3D.20...
Zombies.Ueberlebe.die.Untote...

Old_Stuff
Meine.liebe.Rabenmutter.germ...
Da.Vincis.Demons.S01.Complet...
Eragon.Das.Vermaechtnis.der....
Adele.und.das.Geheimnis.des....
Die.fabelhafte.Welt.der.Amel...
Haus.des.Geldes.S01.German.M...
How.I.Met.Your.Mother.S01.Ge...
The.Dark.Knight.Rises.2012.M...
Weissensee.S03.2015.GERMAN.C...
Weissensee.S01+S02.2010.GERM...
Die.Unglaublichen.-.The.Incr...
Der.grosse.Trick.1978.German...
Sully.2016.MULTi.COMPLETE.BL...
Tremors.3.Die.neue.Brut.2001...
Die.Indianer.von.Cleveland.2...

Filme
Der.Glueckspilz.1966.German....
Helden.der.Propaganda.Sportl...
Emsland.Power.-.Von.null.auf...
Gotham.S04.GERMAN.720p.HDTV....
Supergirl.S03.GERMAN.720p.HD...
The.Americans.2013.S05.GERMA...
The.Flash.2014.S04.GERMAN.72...
Marvels.Runaways.S01.COMPLET...
Marvels.Runaways.S01.COMPLET...
Six.S02.German.DD+51.DL.1080...
Six.S02.German.DD+51.DL.720p...
Homeland.S07.GERMAN.DUBBED.7...
Die.Jagd.1981.German.1080p.W...
Der.Effekt.des.Wassers.2016....
Doctor.Thorne.S01D01-2.MULTi...
Schwarzwaelder.Kirsch.1958.G...
Die.drei.Musketiere.The.Thre...
Ein.Wiedersehen.mit.Kenia.GE...
Geheimnisvolle.Orte.Der.Temp...
Die.Meute.der.Erben.2001.GER...
Spaceballs.1987.German.DUBBE...
7.Below.Haus.der.dunklen.See...
Martial.Law.III.Toedliches.K...
Martial.Law.III.Toedliches.K...

 
 
Wonder.Wheel.2017.German.DL.1080p.Bluray.x264-LeetHD
Jahr: 2017
Genre: Drama
Sprache: Deutsch AC3 | Englisch DTS
Laufzeit: 1h 41mn
Bitrate: 13.1 Mbps
Format: MKV
Größe: 9.28 GiB
Release:

Beschreibung:

Der Rettungsschwimmer Mickey (J. Timberlake) ist in den 1950ern am Strand von Coney Island für die Badegäste zuständig. Bei seinem Job kreuzen die unterschiedlichsten Leben seinen Weg – darunter auch die verrückte Geschichte eines Ehepaares, das auf der Vergnügungsmeile auf Coney Island das Wonder Wheel betreibt. Ginny (K. Winslet) und Humpty (J. Belushi) bekommen nämlich eines Tages überraschend Besuch von Carolina (J. Temple), die behauptet, die Tochter von Humpty zu sein. Sie stellt damit das Leben der beiden schlagartig auf den Kopf. Und als wenn das nicht schon schlimm genug wäre, hat sich Carolina mit den falschen Leuten eingelassen und befindet sich nun auf der Flucht vor Gangstern. Diese wollen Carolina aus dem Weg räumen, weil sie zu gut über illegale Geschäfte informiert ist...



Complete name                            : lhd-wonderwheel-1080.mkv
Format                                   : Matroska
Format version                           : Version 4 / Version 2
File size                                : 9.28 GiB
Duration                                 : 1h 41mn
Overall bit rate                         : 13.1 Mbps
Encoded date                             : UTC 2018-06-19 17:05:44
Writing application                      : mkvmerge v22.0.0 ('At The End Of The World') 64-bit
Writing library                          : libebml v1.3.5 + libmatroska v1.4.8
DURATION                                 : 01:40:26.103000000
NUMBER_OF_FRAMES                         : 4418
NUMBER_OF_BYTES                          : 44068746
_STATISTICS_WRITING_APP                  : mkvmerge v22.0.0 ('At The End Of The World') 64-bit
_STATISTICS_WRITING_DATE_UTC             : 2018-06-19 17:05:44
_STATISTICS_TAGS                         : BPS DURATION NUMBER_OF_FRAMES NUMBER_OF_BYTES

Video
ID                                       : 1
Format                                   : AVC
Format/Info                              : Advanced Video Codec
Format profile                           : High@L4.1
Format settings, CABAC                   : Yes
Format settings, ReFrames                : 4 frames
Codec ID                                 : V_MPEG4/ISO/AVC
Duration                                 : 1h 41mn
Bit rate                                 : 10.7 Mbps
Width                                    : 1 920 pixels
Height                                   : 960 pixels
Display aspect ratio                     : 2.000
Frame rate mode                          : Constant
Frame rate                               : 23.976 fps
Color space                              : YUV
Chroma subsampling                       : 4:2:0
Bit depth                                : 8 bits
Scan type                                : Progressive
Bits/(Pixel*Frame)                       : 0.242
Stream size                              : 7.57 GiB (82%)
Writing library                          : x264 core 155 r2901 7d0ff22
Encoding settings                        : cabac=1 / ref=4 / deblock=1:-1:-1 / analyse=0x3:0x113 / me=umh / subme=8 / psy=1 / psy_rd=0.99:0.01 / mixed_ref=1 / me_range=16 / chroma_me=1 / trellis=1 / 8x8dct=1 / cqm=0 / deadzone=21,11 / fast_pskip=0 / chroma_qp_offset=-3 / threads=12 / lookahead_threads=2 / sliced_threads=0 / nr=0 / decimate=1 / interlaced=0 / bluray_compat=0 / constrained_intra=0 / bframes=3 / b_pyramid=2 / b_adapt=2 / b_bias=0 / direct=3 / weightb=1 / open_gop=0 / weightp=2 / keyint=240 / keyint_min=23 / scenecut=40 / intra_refresh=0 / rc_lookahead=40 / rc=crf / mbtree=1 / crf=19.0 / qcomp=0.60 / qpmin=0 / qpmax=69 / qpstep=4 / vbv_maxrate=62500 / vbv_bufsize=78125 / crf_max=0.0 / nal_hrd=none / filler=0 / ip_ratio=1.40 / aq=1:1.00
Default                                  : Yes
Forced                                   : No

Audio #1
ID                                       : 2
Format                                   : AC-3
Format/Info                              : Audio Coding 3
Mode extension                           : CM (complete main)
Format settings, Endianness              : Big
Codec ID                                 : A_AC3
Duration                                 : 1h 41mn
Bit rate mode                            : Constant
Bit rate                                 : 640 Kbps
Channel(s)                               : 6 channels
Channel positions                        : Front: L C R, Side: L R, LFE
Sampling rate                            : 48.0 KHz
Bit depth                                : 16 bits
Compression mode                         : Lossy
Stream size                              : 464 MiB (5%)
Language                                 : German
Default                                  : Yes
Forced                                   : No

Audio #2
ID                                       : 3
Format                                   : DTS
Format/Info                              : Digital Theater Systems
Mode                                     : 16
Format settings, Endianness              : Big
Codec ID                                 : A_DTS
Duration                                 : 1h 41mn
Bit rate mode                            : Constant
Bit rate                                 : 1 509 Kbps
Channel(s)                               : 6 channels
Channel positions                        : Front: L C R, Side: L R, LFE
Sampling rate                            : 48.0 KHz
Bit depth                                : 24 bits
Compression mode                         : Lossy
Stream size                              : 1.07 GiB (12%)
Language                                 : English
Default                                  : No
Forced                                   : No

Text #1
ID                                       : 4
Format                                   : PGS
Codec ID                                 : S_HDMV/PGS
Codec ID/Info                            : The same subtitle format used on BDs/HD-DVDs
Title                                    : complete
Language                                 : German
Default                                  : No
Forced                                   : No

Text #2
ID                                       : 5
Format                                   : PGS
Codec ID                                 : S_HDMV/PGS
Codec ID/Info                            : The same subtitle format used on BDs/HD-DVDs
Title                                    : complete
Language                                 : English
Default                                  : No
Forced                                   : No


Download:
Share Online Share OnlineShare OnlineShare Online
 

Kommentare