DNS SERVER AENDERNum der staatlichen Zensur zu umgehen. Sollten wir von eurem Provider geseprrt werden, nutzt den TOR BROWSER oder ändert euren DNS SERVER.

Filmwünsche können bei uns im Forum abgegeben werden

Wir Speichern Nicht




 
 
 
Top Releases
Jurassic.World.2.Das.gefalle...
Jurassic.World.2.Das.gefalle...
Racer.and.the.Jailbird.2017....
Racer.and.the.Jailbird.2017....
Racer.and.the.Jailbird.2017....
The.Girl.on.Train.2016.PROPE...
Solo.A.Star.Wars.Story.2018....
Solo.A.Star.Wars.Story.2018....
Solo.A.Star.Wars.Story.2018....
Outrage.Coda.GERMAN.2017.DL....

Cinedubs
Sicario.2.2018.German.AC3MD....
Sicario.2.2018.German.AC3MD....
No.Way.Out.Gegen.die.Flammen...
No.Way.Out.Gegen.die.Flammen...
The.First.Purge.German.DL.AC...
The.First.Purge.German.DL.AC...
Hotel.Transsilvanien.3.Ein.M...
Hotel.Transsilvanien.3.Ein.M...
Meg.German.DL.AC3.Dubbed.720...
Meg.German.DL.AC3.Dubbed.108...

Neuerscheinungen 2017-18
Gosford.Park.2001.MULTi.COMP...
Steig.Nicht.Aus.2018.German....
Steig.Nicht.Aus.2018.German....
Triassic.World.2018.German.7...
Triassic.World.2018.German.D...
Steig.Nicht.Aus.2018.GERMAN....
Triassic.World.2018.MULTi.CO...
Anne.Clark.I.Will.Walk.Out.I...
Decommissioned.Anschlag.auf....
Decommissioned.Anschlag.auf....

XXX
JapanHDV.18.09.10.Kiyoha.Him...
InterracialPass.18.09.07.Mel...
InnocentHigh.18.09.10.Karla....
Lustery.E134.James.And.Val.T...
LittleCapriceDreams.18.09.07...
JulesJordan.18.09.07.Julie.K...
Latin.Amateurs.Watch.Me.Bang...
I.Fucked.Your.Step.Father.9....
KimberLeeLive.18.09.03.Kimbe...
LoveHerFeet.18.09.07.Emily.W...
IKnowThatGirl.18.09.09.Eliza...
Lustery.E135.Asteria.And.Uly...
I.Fucked.Your.Step.Father.9....
KarupsOW.18.09.07.Victoria.P...
KimberLeeLive.18.08.24.Crave...
KarupsHA.18.09.10.Lenna.Lux....
KimberLeeLive.18.09.07.Ashly...
Hustler.18.09.09.Vanessa.Sky...
LezCuties.18.09.07.Zazie.Sky...
JulesJordan.18.09.10.Angela....

3D
Solo.A.Star.Wars.Story.3D.20...
Solo.A.Star.Wars.Story.3D.20...
Die.Biene.Maja.2.Die.Honigsp...
Avengers.Infinity.War.3D.201...
Avengers.Infinity.War.3D.201...
Rampage.Big.Meets.Bigger.3D....
Rampage.Big.Meets.Bigger.3D....
Rampage.Big.Meets.Bigger.3D....
Winter.Games.3D.2013.DUAL.CO...
Tomb.Raider.3D.2018.German.7...
Rampage.Big.Meets.Bigger.3D....
Rampage.Big.Meets.Bigger.3D....
Tomb.Raider.3D.2018.MULTi.CO...
Pacific.Rim.Uprising.3D.2018...
Ready.Player.One.3D.2018.Ger...

Old_Stuff
How.I.Met.Your.Mother.S02.Ge...
Akte.X.S01.German.DTS.DL.108...
Den.Himmel.gibts.echt.DL.108...
Vikings.S02.German.DL.1080p....
Be.Kind.Rewind.Abgedreht.200...
Be.Kind.Rewind.Abgedreht.200...
Dracula.The.Dark.Lord.2012.G...
21.2008.German.DL.1080p.BluR...
Achtung.fertig.WK.Swissgerma...
The.Ouija.Exorcism.2015.MULT...
Meine.liebe.Rabenmutter.germ...
Da.Vincis.Demons.S01.Complet...
Eragon.Das.Vermaechtnis.der....
Adele.und.das.Geheimnis.des....
Die.fabelhafte.Welt.der.Amel...

Filme
Cradle.of.Fear.2001.German.D...
Gewalt.und.Leidenschaft.1974...
Der.Champ.1979.German.AC3D.D...
And.the.Oscar.Goes.To.2014.G...
Meisterschaft.im.Seitensprun...
Maniac.S01.COMPLETE.GERMAN.D...
Maniac.S01.COMPLETE.GERMAN.D...
The.Good.Cop.S01.GERMAN.DL.1...
The.Good.Cop.S01.GERMAN.DL.7...
Fühlen.Sie.sich.manchmal.au...
The.Last.Man.On.Earth.S04.Ge...
The.Last.Man.On.Earth.S04.Ge...
eXistenZ.GERMAN.1999.DL.1080...
eXistenZ.GERMAN.1999.DL.720p...
Snowfall.S02.GERMAN.DUBBED.7...
Ballers.S04.GERMAN.DUBBED.DL...
Ballers.S04.GERMAN.DUBBED.DL...
The.Handmaids.Tale.S02.Germa...
The.Handmaids.Tale.S02.Germa...
Mr.Mercedes.S02.German.DD+51...
Mr.Mercedes.S02.German.DD+51...
Greys.Anatomy.S14.German.Dub...
The.Deuce.S02.GERMAN.DL.1080...
The.Deuce.S02.GERMAN.DL.720p...

 
 
Vom.Ende.einer.Geschichte.2017.GERMAN.MD.DL.1080p.BluRay.x264-CARTEL
Jahr: 2017
Genre: Drama
Sprache: Deutsch AC3 | Englisch DTS
Laufzeit: 1h 48mn
Bitrate: 10.3 Mbps
Format: MKV
Größe: 7.80 GiB
Release:

Beschreibung:

Tony Webster (Jim Broadbent / als junger Mann: Billy Howle) ist ein scheinbar normaler Senior. Geschieden und im Ruhestand lebt er ein relativ unspektakuläres Leben. Doch eines Tages holt ihn der Schatten seiner Vergangenheit ein und er steht plötzlich vor einem mysteriösen Erbe: Er bekommt ein Tagebuch, geführt von Tonys ehemaligem besten Freund Adrian (Joe Alwyn), der ihm zu Universitätszeiten einst seine Veronica Ford (Freya Mavor) ausspannte, deren Mutter Sarah (Emily Mortimer) die geschriebenen Erinnerungen nun besitzt. Je tiefer Tony in seiner Vergangenheit gräbt, desto mehr beginnt er, sein bisheriges Leben zu hinterfragen. Er trifft sich nach vielen Jahren erneut mit Veronica (jetzt: Charlotte Rampling) und alles kommt zurück: die erste Liebe, das gebrochene Herz, Betrug, Schuld und Reue. Tony ist nun an einem Punkt, an dem er Verantwortung übernehmen muss – für zermürbende Konsequenzen von Taten, die er vor langer Zeit beging…



Complete name                            : cartel-voeneiges-1080.mkv
Format                                   : Matroska
Format version                           : Version 2
File size                                : 7.80 GiB
Duration                                 : 1h 48mn
Overall bit rate                         : 10.3 Mbps
Encoded date                             : UTC 2018-07-02 12:22:00
Writing application                      : mkvmerge v24.0.0 ('Beyond The Pale') 64-bit
Writing library                          : libebml v1.3.6 + libmatroska v1.4.9
DURATION                                 : 01:48:36.502000000
NUMBER_OF_FRAMES                         : 610922
NUMBER_OF_BYTES                          : 1229175064
_STATISTICS_WRITING_APP                  : mkvmerge v24.0.0 ('Beyond The Pale') 64-bit
_STATISTICS_WRITING_DATE_UTC             : 2018-07-02 12:22:00
_STATISTICS_TAGS                         : BPS DURATION NUMBER_OF_FRAMES NUMBER_OF_BYTES

Video
ID                                       : 1
Format                                   : AVC
Format/Info                              : Advanced Video Codec
Format profile                           : High@L4.1
Format settings, CABAC                   : Yes
Format settings, ReFrames                : 5 frames
Codec ID                                 : V_MPEG4/ISO/AVC
Duration                                 : 1h 48mn
Bit rate                                 : 8 576 Kbps
Width                                    : 1 920 pixels
Height                                   : 808 pixels
Display aspect ratio                     : 2.40:1
Frame rate mode                          : Constant
Frame rate                               : 23.976 fps
Color space                              : YUV
Chroma subsampling                       : 4:2:0
Bit depth                                : 8 bits
Scan type                                : Progressive
Bits/(Pixel*Frame)                       : 0.231
Stream size                              : 6.35 GiB (81%)
Writing library                          : x264 core 152 r2851kMod ba24899
Encoding settings                        : cabac=1 / ref=5 / deblock=1:-3:-3 / analyse=0x3:0x133 / me=umh / subme=8 / psy=1 / fade_compensate=0.00 / psy_rd=1.00:0.00 / mixed_ref=1 / me_range=16 / chroma_me=1 / trellis=1 / 8x8dct=1 / cqm=0 / deadzone=21,11 / fast_pskip=0 / chroma_qp_offset=-2 / threads=6 / lookahead_threads=1 / sliced_threads=0 / nr=0 / decimate=1 / interlaced=0 / bluray_compat=0 / constrained_intra=0 / bframes=3 / b_pyramid=2 / b_adapt=1 / b_bias=0 / direct=3 / weightb=1 / open_gop=0 / weightp=2 / keyint=250 / keyint_min=23 / scenecut=40 / intra_refresh=0 / rc_lookahead=50 / rc=2pass / mbtree=1 / bitrate=8576 / ratetol=1.0 / qcomp=0.60 / qpmin=0 / qpmax=69 / qpstep=4 / cplxblur=20.0 / qblur=0.5 / vbv_maxrate=62500 / vbv_bufsize=78125 / nal_hrd=none / filler=0 / ip_ratio=1.40 / aq=1:1.00
Default                                  : No
Forced                                   : No
DURATION                                 : 01:48:36.510000000
NUMBER_OF_FRAMES                         : 156240
NUMBER_OF_BYTES                          : 6984931305
_STATISTICS_WRITING_APP                  : mkvmerge v24.0.0 ('Beyond The Pale') 64-bit
_STATISTICS_WRITING_DATE_UTC             : 2018-07-02 12:22:00
_STATISTICS_TAGS                         : BPS DURATION NUMBER_OF_FRAMES NUMBER_OF_BYTES

Audio #1
ID                                       : 2
Format                                   : AC-3
Format/Info                              : Audio Coding 3
Mode extension                           : CM (complete main)
Format settings, Endianness              : Big
Codec ID                                 : A_AC3
Duration                                 : 1h 48mn
Bit rate mode                            : Constant
Bit rate                                 : 192 Kbps
Channel(s)                               : 2 channels
Channel positions                        : Front: L R
Sampling rate                            : 48.0 KHz
Bit depth                                : 16 bits
Compression mode                         : Lossy
Stream size                              : 149 MiB (2%)
Language                                 : German
Default                                  : Yes
Forced                                   : No

Audio #2
ID                                       : 3
Format                                   : DTS
Format/Info                              : Digital Theater Systems
Mode                                     : 16
Format settings, Endianness              : Big
Codec ID                                 : A_DTS
Duration                                 : 1h 48mn
Bit rate mode                            : Constant
Bit rate                                 : 1 509 Kbps
Channel(s)                               : 6 channels
Channel positions                        : Front: L C R, Side: L R, LFE
Sampling rate                            : 48.0 KHz
Bit depth                                : 24 bits
Compression mode                         : Lossy
Stream size                              : 1.14 GiB (15%)
Language                                 : English
Default                                  : No
Forced                                   : No


Download:
Share Online Share OnlineShare OnlineShare Online
 

Kommentare