DNS SERVER AENDERNum der staatlichen Zensur zu umgehen. Sollten wir von eurem Provider geseprrt werden, nutzt den TOR BROWSER oder ändert euren DNS SERVER.

Filmwünsche können bei uns im Forum abgegeben werden

Wir Speichern Nicht




 
 
 
Top Releases
Peter.Hase.2018.German.DTS.D...
Peter.Hase.2018.German.DTS.D...
Peter.Hase.2018.MULTI.COMPLE...
Battle.Of.The.Sexes.2017.MUL...
Tomb.Raider.2018.German.DTS....
Tomb.Raider.2018.German.DTS....
A.Quiet.Place.2018.COMPLETE....
The.Equalizer.2014.COMPLETE....
A.Quiet.Place.2018.German.DL...
A.Quiet.Place.2018.German.DL...

Cinedubs
Die.Frau.die.vorausgeht.2017...
Die.Frau.die.vorausgeht.2017...
Super.Troopers.2.2018.German...
Thoroughbreds.2017.German.AC...
Thoroughbreds.2017.German.AC...
Vom.Ende.einer.Geschichte.20...
Vom.Ende.einer.Geschichte.20...
I.Feel.Pretty.2018.German.AC...
I.Feel.Pretty.2018.German.AC...
Wahrheit.oder.Pflicht.UNCUT....

Neuerscheinungen 2017-18
How.It.Ends.2018.German.DL.1...
Der.Glueckspilz.1966.German....
Der.Glueckspilz.1966.German....
Helene Fischer.Live.Die Aren...
Die.Trapp-Familie.1956.Die.T...
Der.Zerstreute.1970.German.1...
Der.Zerstreute.1970.German.7...
Avengers.Grimm.2.Time.Wars.2...
Avengers.Grimm.2.Time.Wars.2...
Bring.mir.den.Kopf.von.Alfre...

XXX
Bombshell.Bottoms.2.XXX.720p...
KarupsOW.18.07.03.Mindi.Mink...
KarupsHA.18.07.04.Jessi.June...
NewSensations.18.07.04.Lena....
PornMegaLoad.18.07.03.Paola....
PornMegaLoad.18.07.03.Micky....
Daddy.Loves.My.Big.Tits.2.XX...
Hot.Russian.Candy.2.XXX.1080...
My.Stepsisters.Tight.Pussy.X...
Russian.Institute.Punishment...
The.Innocence.Of.Youth.5.XXX...
My.Sexy.Kittens.55.XXX.720P....
TeenCurves.18.07.04.Skylar.S...
FantasyMassage.18.07.04.Merc...
MommyBlowsBest.18.07.04.Kris...
ATKGirlfriends.18.07.04.Emil...
ClubSeventeen.18.07.04.Kamil...
ClubSeventeen.18.07.04.Peach...
GloryHoleSecrets.18.07.04.So...
JaysPOV.18.07.03.Joseline.Ke...

3D
Ready.Player.One.2018.3D.HOU...
Ready.Player.One.2018.3D.HSB...
Ready.Player.One.3D.2018.MUL...
Black.Panther.3D.2018.MULTI....
Black.Panther.3D.HOU.2018.Ge...
Black.Panther.3D.HSBS.2018.G...
Best.of.3D.vol.04.-.06.GERMA...
Tomb.Raider.2018.3D.HOU.Germ...
Tomb.Raider.2018.3D.HSBS.Ger...
Tomb.Raider.2018.3D.COMPLETE...
Zombies.Ueberlebe.die.Untote...
Der.Dschungel.Der.Zauber.ein...
Penthouse.Presents.Sexy.Sing...
The.LEGO.Ninjago.Movie.3D.20...
Zombies.Ueberlebe.die.Untote...

Old_Stuff
Meine.liebe.Rabenmutter.germ...
Da.Vincis.Demons.S01.Complet...
Eragon.Das.Vermaechtnis.der....
Adele.und.das.Geheimnis.des....
Die.fabelhafte.Welt.der.Amel...
Haus.des.Geldes.S01.German.M...
How.I.Met.Your.Mother.S01.Ge...
The.Dark.Knight.Rises.2012.M...
Weissensee.S03.2015.GERMAN.C...
Weissensee.S01+S02.2010.GERM...
Die.Unglaublichen.-.The.Incr...
Der.grosse.Trick.1978.German...
Sully.2016.MULTi.COMPLETE.BL...
Tremors.3.Die.neue.Brut.2001...
Die.Indianer.von.Cleveland.2...

Filme
Little.Evil.2017.German.DL.A...
Linie.1.1988.German.1080p.We...
Like.Dandelion.Dust.2009.Ger...
Marvels.Agents.of.S.H.I.E.L....
Jackie.Chan.Kung.Fu.Master.2...
Manchmal.kommen.sie.wieder.2...
Der.Koenig.und.ich.1956.Germ...
Der.Koenig.und.ich.1956.Germ...
Der.Mann.im.Mond.1991.German...
Der.Mann.im.Mond.1991.German...
The.Good.Fight.S02.German.DD...
The.Good.Fight.S02.German.DD...
Der.Glueckspilz.1966.German....
Helden.der.Propaganda.Sportl...
Emsland.Power.-.Von.null.auf...
Gotham.S04.GERMAN.720p.HDTV....
Supergirl.S03.GERMAN.720p.HD...
The.Americans.2013.S05.GERMA...
The.Flash.2014.S04.GERMAN.72...
Marvels.Runaways.S01.COMPLET...
Marvels.Runaways.S01.COMPLET...
Six.S02.German.DD+51.DL.1080...
Six.S02.German.DD+51.DL.720p...
Homeland.S07.GERMAN.DUBBED.7...

 
 
The.Greatest.Showman.2017.German.DL.AC3.1080p.BluRay.x265-FuN
Jahr: 2017
Genre: Biography | Drama | Musical
Sprache: Deutsch AC3 | Englisch AC3
Laufzeit: 1h 44mn
Bitrate: 2 942 Kbps
Format: MKV
Größe: 2.15 GiB
Release:

Beschreibung:

1834 zieht P. T. Barnum (H. Jackman) mit seiner Frau Charity (M. Williams) nach New York, wo er sich eine Karriere im Showgeschäft aufzubauen erhofft. Mit der Vorführung der angeblich 161-jährigen Amme George Washingtons, Joice Heth (D. Carroll), startet er schließlich seine erste wichtige Show. Einige Jahr später übernimmt er das American Museum und begründet mit dessen Kuriositätenkabinett und allerlei aufwendigen Shows und massiven PR-Kampagnen seinen Ruf als legendärer Entertainer. Doch im gleichen Maß wie sein Ansehen in der Unterhaltungsindustrie wächst, werden auch die Stimmen lauter, die seine zum Teil aus Lügen und Phantasien zusammengeschusterten Sensationen als billige Geldmacherei kritisieren. Daraufhin startet Barnum mit der schwedischen Sängerin Jenny Lind (R. Ferguson) 1851 eine landesweite Tournee, die die bis dato in den USA unbekannte Interpretin zum ersten Superstar Amerikas werden lässt und der er während ihrer einjährigen Zusammenarbeit verfällt. Allerdings gibt es auf diesem Höhepunkt im Reich der Stars nur noch eine Richtung die Barnums Karriere nehmen kann ...




Format                                   : Matroska
Format version                           : Version 4 / Version 2
File size                                : 2.15 GiB
Duration                                 : 1h 44mn
Overall bit rate                         : 2 942 Kbps
Encoded date                             : UTC 2018-07-04 11:41:07
Writing application                      : mkvmerge v22.0.0 ('At The End Of The World') 64-bit
Writing library                          : libebml v1.3.5 + libmatroska v1.4.8

Video
ID                                       : 1
Format                                   : HEVC
Format/Info                              : High Efficiency Video Coding
Format profile                           : Main@L4.0
Codec ID                                 : V_MPEGH/ISO/HEVC
Duration                                 : 1h 44mn
Bit rate                                 : 2 115 Kbps
Width                                    : 1 920 pixels
Height                                   : 800 pixels
Display aspect ratio                     : 2.40:1
Frame rate mode                          : Constant
Frame rate                               : 23.976 fps
Color space                              : YUV
Chroma subsampling                       : 4:2:0
Bit depth                                : 8 bits
Bits/(Pixel*Frame)                       : 0.057
Stream size                              : 1.55 GiB (72%)
Writing library                          : x265 2.6:[Linux][GCC 7.3.0][64 bit] 8bit+10bit+12bit
Encoding settings                        : cpuid=1056767 / frame-threads=2 / wpp / no-pmode / no-pme / no-psnr / no-ssim / log-level=2 / input-csp=1 / input-res=1920x800 / interlace=0 / total-frames=0 / level-idc=0 / high-tier=1 / uhd-bd=0 / ref=3 / no-allow-non-conformance / no-repeat-headers / annexb / no-aud / no-hrd / info / hash=0 / no-temporal-layers / open-gop / min-keyint=24 / keyint=240 / bframes=4 / b-adapt=2 / b-pyramid / bframe-bias=0 / rc-lookahead=20 / lookahead-slices=5 / scenecut=40 / no-intra-refresh / ctu=64 / min-cu-size=8 / no-rect / no-amp / max-tu-size=32 / tu-inter-depth=1 / tu-intra-depth=1 / limit-tu=0 / rdoq-level=0 / dynamic-rd=0,00 / no-ssim-rd / signhide / no-tskip / nr-intra=0 / nr-inter=0 / no-constrained-intra / no-strong-intra-smoothing / max-merge=2 / limit-refs=3 / no-limit-modes / me=1 / subme=2 / merange=57 / temporal-mvp / weightp / no-weightb / no-analyze-src-pics / deblock=0:0 / no-sao / no-sao-non-deblock / rd=3 / no-early-skip / rskip / no-fast-intra / no-tskip-fast / no-cu-lossless / no-b-intra / no-splitrd-skip / rdpenalty=0 / psy-rd=2,00 / psy-rdoq=0,00 / no-rd-refine / analysis-reuse-mode=0 / no-lossless / cbqpoffs=0 / crqpoffs=0 / rc=crf / crf=20,0 / qcomp=0,60 / qpstep=4 / stats-write=0 / stats-read=0 / ipratio=1,40 / pbratio=1,30 / aq-mode=1 / aq-strength=1,00 / cutree / zone-count=0 / no-strict-cbr / qg-size=32 / no-rc-grain / qpmax=69 / qpmin=0 / no-const-vbv / sar=1 / overscan=0 / videoformat=5 / range=0 / colorprim=1 / transfer=1 / colormatrix=1 / chromaloc=0 / display-window=0 / max-cll=0,0 / min-luma=0 / max-luma=255 / log2-max-poc-lsb=8 / vui-timing-info / vui-hrd-info / slices=1 / no-opt-qp-pps / no-opt-ref-list-length-pps / no-multi-pass-opt-rps / scenecut-bias=0,05 / no-opt-cu-delta-qp / no-aq-motion / no-hdr / no-hdr-opt / no-dhdr10-opt / analysis-reuse-level=5 / scale-factor=0 / refine-intra=0 / refine-inter=0 / refine-mv=0 / no-limit-sao / ctu-info=0 / no-lowpass-dct / refine-mv-type=0 / copy-pic=1
Default                                  : Yes
Forced                                   : No
DURATION                                 : 01:44:49.283000000
NUMBER_OF_FRAMES                         : 150792
NUMBER_OF_BYTES                          : 1577326920
_STATISTICS_WRITING_APP                  : mkvmerge v22.0.0 ('At The End Of The World') 64-bit
_STATISTICS_WRITING_DATE_UTC             : 2018-07-04 11:41:07
_STATISTICS_TAGS                         : BPS DURATION NUMBER_OF_FRAMES NUMBER_OF_BYTES

Audio #1
ID                                       : 2
Format                                   : AC-3
Format/Info                              : Audio Coding 3
Mode extension                           : CM (complete main)
Format settings, Endianness              : Big
Codec ID                                 : A_AC3
Duration                                 : 1h 44mn
Bit rate mode                            : Constant
Bit rate                                 : 384 Kbps
Channel(s)                               : 6 channels
Channel positions                        : Front: L C R, Side: L R, LFE
Sampling rate                            : 48.0 KHz
Bit depth                                : 16 bits
Compression mode                         : Lossy
Stream size                              : 288 MiB (13%)
Title                                    : Surround
Language                                 : German
Default                                  : Yes
Forced                                   : Yes
DURATION                                 : 01:44:49.280000000
NUMBER_OF_FRAMES                         : 196540
NUMBER_OF_BYTES                          : 301885440
_STATISTICS_WRITING_APP                  : mkvmerge v22.0.0 ('At The End Of The World') 64-bit
_STATISTICS_WRITING_DATE_UTC             : 2018-07-04 11:41:07
_STATISTICS_TAGS                         : BPS DURATION NUMBER_OF_FRAMES NUMBER_OF_BYTES

Audio #2
ID                                       : 3
Format                                   : AC-3
Format/Info                              : Audio Coding 3
Mode extension                           : CM (complete main)
Format settings, Endianness              : Big
Codec ID                                 : A_AC3
Duration                                 : 1h 44mn
Bit rate mode                            : Constant
Bit rate                                 : 384 Kbps
Channel(s)                               : 6 channels
Channel positions                        : Front: L C R, Side: L R, LFE
Sampling rate                            : 48.0 KHz
Bit depth                                : 16 bits
Compression mode                         : Lossy
Stream size                              : 288 MiB (13%)
Title                                    : Surround
Language                                 : English
Default                                  : No
Forced                                   : No
DURATION                                 : 01:44:49.280000000
NUMBER_OF_FRAMES                         : 196540
NUMBER_OF_BYTES                          : 301885440
_STATISTICS_WRITING_APP                  : mkvmerge v22.0.0 ('At The End Of The World') 64-bit
_STATISTICS_WRITING_DATE_UTC             : 2018-07-04 11:41:07
_STATISTICS_TAGS                         : BPS DURATION NUMBER_OF_FRAMES NUMBER_OF_BYTES

Text
ID                                       : 4
Format                                   : PGS
Codec ID                                 : S_HDMV/PGS
Codec ID/Info                            : The same subtitle format used on BDs/HD-DVDs
Title                                    : full
Language                                 : English
Default                                  : No
Forced                                   : No
DURATION                                 : 01:43:23.072000000
NUMBER_OF_FRAMES                         : 5255
NUMBER_OF_BYTES                          : 129680953
_STATISTICS_WRITING_APP                  : mkvmerge v22.0.0 ('At The End Of The World') 64-bit
_STATISTICS_WRITING_DATE_UTC             : 2018-07-04 11:41:07
_STATISTICS_TAGS                         : BPS DURATION NUMBER_OF_FRAMES NUMBER_OF_BYTES



Download:
Share Online Share OnlineShare OnlineShare Online
 

Kommentare