HD-AREA wünscht Euch eine besinnliche Weihnachtszeit ;)

DNS SERVER AENDERNum der staatlichen Zensur zu umgehen. Sollten wir von eurem Provider geseprrt werden, nutzt den TOR BROWSER oder ändert euren DNS SERVER.

Filmwünsche können bei uns im Forum abgegeben werden

Wir Speichern Nicht




 
 
 
Top Releases
Von.Loewen.und.Laemmern.2007...
The.Hateful.8.2015.German.AC...
Der.Unsichtbare.Gast.2016.Ge...
BlacKkKlansman.2018.German.A...
Von.Loewen.und.Laemmern.2007...
Von.Loewen.und.Laemmern.2007...
Von.Loewen.und.Laemmern.2007...
Braven.2018.German.AC3.DL.10...
The.Last.Movie.Star.2017.DUA...
The.Infiltrator.2016.German....

Cinedubs
Johnny.English.Man.lebt.nur....
Johnny.English.Man.lebt.nur....
Johnny.English.Man.lebt.nur....
Phantastische.Tierwesen.Grin...
Phantastische.Tierwesen.Grin...
The.Guilty.2018.German.AC3D....
The.Guilty.2018.German.AC3D....
Aufbruch.zum.Mond.German.DL....
Aufbruch.zum.Mond.German.DL....
Night.School.2018.GERMAN.DL....

Neuerscheinungen 2017-18
Monster.Hunt.2.2018.DUAL.COM...
Slender.Man.2018.MULTi.COMPL...
Der.Teufelsschrei.Evilspeak....
Ultimate.Justice.Toeten.oder...
Ben.Abenteuer.auf.der.Maeuse...
Ben.Abenteuer.auf.der.Maeuse...
Ben.Abenteuer.auf.der.Maeuse...
Ultimate.Justice.Toeten.oder...
Ultimate.Justice.Toeten.oder...
Pitchfork.2016.UNCUT.German....

XXX
FatManFuck.18.06.30.Little.T...
HornyDoctor.18.12.10.Karol.L...
FatManFuck.18.06.24.Lauren.C...
HeavyOnHotties.18.12.11.Frai...
LaurenPhillips.17.08.18.Boob...
MassageRooms.18.12.12.Gabi.G...
ImmoralLive.18.12.11.Christi...
FatManFuck.18.08.19.Summer.R...
FatManFuck.18.09.09.Stacey.X...
LaurenPhillips.17.08.11.Pant...
Hegre.18.12.11.Dominika.C.Th...
FatManFuck.18.07.22.Nadia.El...
MetArt.18.12.11.Sybil.A.Happ...
LaurenPhillips.17.07.28.Perf...
FatManFuck.18.06.17.Lexus.Jo...
FatManFuck.18.05.20.Charlie....
FuckinVan.18.12.11.Estrella....
EuroTeenErotica.18.12.10.Kri...
GapeLand.18.12.12.Victoria.P...
GirlsOutWest.18.12.10.Rubi.V...

3D
Meg.3D.2018.MULTi.COMPLETE.B...
Meg.3D.2018.German.DL.1080p....
Gans.im.Glueck.3D.2018.MULTi...
The.Art.of.Flight.3D.2011.Ge...
The.End.Of.The.World.3D.2010...
The.First.Avenger.Civil.War....
Die.Unglaublichen.2.2018.3D....
Skyscraper.3D.2018.MULTi.COM...
Ant-Man.And.The.Wasp.3D.2018...
Ant.Man.and.the.Wasp.3D.2018...
Die.Unglaublichen.2.3D.2018....
Die.Unglaublichen.2.2018.3D....
Die.Unglaublichen.2.2018.3D....
Sharknado.6.The.Last.One.3D....
Deep.Kleine.Helden.der.Tiefs...

Old_Stuff
Akte.X.S05.German.DTS.DL.108...
Akte.X.S04.German.DTS.DL.108...
Akte.X.S03.German.DTS.DL.108...
Dunkirk.1958.COMPLETE.BLURAY...
Das.Wunder.von.Manhattan.199...
The.Amazing.Spiderman.2.Rise...
Rise.of.the.Predator.2014.Ge...
Detective.Dee.und.das.Geheim...
Detective.Dee.Und.Der.Fluch....
Ghost.Rider.Spirit.of.Vengea...
Species.IV.Das.Erwachen.2007...
Species.IV.Das.Erwachen.2007...
Hotel.Transsilvanien.2012.Ge...
The.Dead.2010.German.DL.1080...
The.Dead.2.India.2013.German...

Filme
Modern.Family.S09.GERMAN.DUB...
Modern.Family.S09.GERMAN.DUB...
MADIBA.S01D01-2.MULTi.COMPLE...
Suits.S07.COMPLETE.German.DL...
Summer.Shark.Attack.2016.Ger...
Fail.State.2017.1080p.WEB.H2...
Sugarhouse.2007.German.DL.10...
Suicide.Note.Falscher.Verdac...
Suicide.Squad.2016.German.TH...
Summer.of.Sam.1999.German.AC...
Summer.Scars.2007.German.DL....
Robin.Williams.Come.Inside.M...
Black.Book.2006.German.AC3D....
In.Sachen.Liebe.1997.German....
Sunset.Boulevard.1950.German...
Sunshine.Barry.und.die.Disco...
Super.Buddies.2013.German.AC...
Super.Cyclone.2012.German.DL...
Trumps.heisse.Grenze.GERMAN....
Supercollider.The.Black.Hole...
Superheroes.Voll.echte.Super...
Superstar.2012.German.1080p....
Supernatural.Activity.2012.G...
Supremacy.2014.German.DL.108...

 
 
Marvels.Agents.of.S.H.I.E.L.D.S05.COMPLETE.GERMAN.DL.1080p.HDTV.x264-MDGP
Jahr: 2017
Genre: Action | Abenteuer | Drama
Sprache: Deutsch AC3 | Englisch AC3
Laufzeit: 41min je Folge
Bitrate: 2800 Kbps
Format: MKV
Größe: 1 GB je Folge
Release:

Beschreibung:

S.H.I.E.L.D. ist eine geheime Spionageeinheit, die gegründet wurde, um die Menschheit vor unbekannten, übernatürlichen und außerirdischen Gefahren zu schützen. Nachdem Agent Coulson in „Marvel’s The Avengers“ scheinbar durch Loki ermordet wurde, kehrt er zu der geheimen Organisation S.H.I.E.L.D. zurück, um ein neues Team zusammenzustellen. Die Gruppe aus Spezialisten soll weltweit in Missionen gegen übernatürliche Phänomene eingesetzt werden und nach Menschen mit Superkräften Ausschau halten.

 

enthaltene Folgen (Staffel komplett):

Marvels.Agents.of.S.H.I.E.L.D.S05E01.Orientierung.Teil.1.GERMAN.DL.1080p.HDTV.x264-MDGP

Marvels.Agents.of.S.H.I.E.L.D.S05E02.Orientierung.Teil.2.GERMAN.DL.1080p.HDTV.x264-MDGP

Marvels.Agents.of.S.H.I.E.L.D.S05E03.Ein.Leben.gegeben.GERMAN.DL.1080p.HDTV.x264-MDGP

Marvels.Agents.of.S.H.I.E.L.D.S05E04.Ein.Leben.gewonnen.GERMAN.DL.1080p.HDTV.x264-MDGP

Marvels.Agents.of.S.H.I.E.L.D.S05E05.Alles.auf.Anfang.GERMAN.DL.1080p.HDTV.x264-MDGP

Marvels.Agents.of.S.H.I.E.L.D.S05E06.Brot.und.Spiele.GERMAN.DL.1080p.HDTV.x264-MDGP

Marvels.Agents.of.S.H.I.E.L.D.S05E07.Teile.und.herrsche.GERMAN.DL.1080p.HDTV.x264-MDGP

Marvels.Agents.of.S.H.I.E.L.D.S05E08.Der.letzte.Tag.GERMAN.DL.1080p.HDTV.x264-MDGP

Marvels.Agents.of.S.H.I.E.L.D.S05E09.Ein.perfekter.Plan.GERMAN.DL.1080p.HDTV.x264-MDGP

Marvels.Agents.of.S.H.I.E.L.D.S05E10.In.einem.anderen.Land.GERMAN.DL.1080p.HDTV.x264-MDGP

Marvels.Agents.of.S.H.I.E.L.D.S05E11.Willkommen.zu.Hause.GERMAN.DL.1080p.HDTV.x264-MDGP

Marvels.Agents.of.S.H.I.E.L.D.S05E12.Ein.echter.Held.GERMAN.DL.1080p.HDTV.x264-MDGP

Marvels.Agents.of.S.H.I.E.L.D.S05E13.Gravitonium.GERMAN.DL.1080p.HDTV.x264-MDGP

Marvels.Agents.of.S.H.I.E.L.D.S05E14.Der.Teufel.Komplex.GERMAN.DL.1080p.HDTV.x264-MDGP

Marvels.Agents.of.S.H.I.E.L.D.S05E15.Die.Letzten.von.Hydra.GERMAN.DL.1080p.HDTV.x264-MDGP

Marvels.Agents.of.S.H.I.E.L.D.S05E16.Die.innere.Stimme.GERMAN.DL.1080p.HDTV.x264-MDGP

Marvels.Agents.of.S.H.I.E.L.D.S05E17.Flitterwochen.GERMAN.DL.1080p.HDTV.x264-MDGP 

Marvels.Agents.of.S.H.I.E.L.D.S05E18.Unausweichlich.GERMAN.DL.1080p.HDTV.x264-MDGP 

Marvels.Agents.of.S.H.I.E.L.D.S05E19.Invasion.GERMAN.DL.1080p.HDTV.x264-MDGP

Marvels.Agents.of.S.H.I.E.L.D.S05E20.Der.Schild.der.Erde.GERMAN.DL.1080p.HDTV.x264-MDGP

Marvels.Agents.of.S.H.I.E.L.D.S05E21.Die.Macht.der.Schwerkraft.GERMAN.DL.1080p.HDTV.x264-MDGP

Marvels.Agents.of.S.H.I.E.L.D.S05E22.Das.Ende.GERMAN.DL.1080p.HDTV.x264-MDGP NEU



General
Complete name                            : Marvels.Agents.of.S.H.I.E.L.D.S05E01.Orientierung.Teil.1.GERMAN.DL.1080p.HDTV.x264-MDGP\mdgp-marvelsagentsofshields05e01-1080p.mkv
Format                                   : Matroska
Format version                           : Version 4 / Version 2
File size                                : 1.02 GiB
Duration                                 : 41mn 19s
Overall bit rate                         : 3 520 Kbps
Encoded date                             : UTC 2018-07-13 20:40:18
Writing application                      : mkvmerge v7.7.0 ('Six Voices') 64bit built on Feb 28 2015 23:39:33
Writing library                          : libebml v1.3.1 + libmatroska v1.4.2
DURATION                                 : 00:41:19.712000000
NUMBER_OF_FRAMES                         : 77491
NUMBER_OF_BYTES                          : 59513088
_STATISTICS_WRITING_APP                  : mkvmerge v7.7.0 ('Six Voices') 64bit built on Feb 28 2015 23:39:33
_STATISTICS_WRITING_DATE_UTC             : 2018-07-13 20:40:18
_STATISTICS_TAGS                         : BPS DURATION NUMBER_OF_FRAMES NUMBER_OF_BYTES

Video
ID                                       : 1
Format                                   : AVC
Format/Info                              : Advanced Video Codec
Format profile                           : High@L4.1
Format settings, CABAC                   : Yes
Format settings, ReFrames                : 4 frames
Codec ID                                 : V_MPEG4/ISO/AVC
Duration                                 : 41mn 19s
Bit rate                                 : 2 874 Kbps
Width                                    : 1 920 pixels
Height                                   : 1 080 pixels
Display aspect ratio                     : 16:9
Frame rate mode                          : Constant
Frame rate                               : 25.000 fps
Color space                              : YUV
Chroma subsampling                       : 4:2:0
Bit depth                                : 8 bits
Scan type                                : Progressive
Bits/(Pixel*Frame)                       : 0.055
Stream size                              : 850 MiB (82%)
Writing library                          : x264 core 155 r2901 7d0ff22
Encoding settings                        : cabac=1 / ref=4 / deblock=1:-3:-3 / analyse=0x3:0x113 / me=umh / subme=7 / psy=1 / psy_rd=1.00:0.00 / mixed_ref=1 / me_range=16 / chroma_me=1 / trellis=1 / 8x8dct=1 / cqm=0 / deadzone=21,11 / fast_pskip=0 / chroma_qp_offset=-2 / threads=12 / lookahead_threads=2 / sliced_threads=0 / nr=0 / decimate=1 / interlaced=0 / bluray_compat=0 / constrained_intra=0 / bframes=3 / b_pyramid=2 / b_adapt=1 / b_bias=0 / direct=1 / weightb=1 / open_gop=0 / weightp=2 / keyint=250 / keyint_min=25 / scenecut=40 / intra_refresh=0 / rc_lookahead=40 / rc=crf / mbtree=1 / crf=20.0 / qcomp=0.60 / qpmin=0 / qpmax=69 / qpstep=4 / ip_ratio=1.40 / aq=1:1.00
Language                                 : German
Default                                  : Yes
Forced                                   : No
Color primaries                          : BT.709
Transfer characteristics                 : BT.709
Matrix coefficients                      : BT.709

Audio #1
ID                                       : 2
Format                                   : AC-3
Format/Info                              : Audio Coding 3
Mode extension                           : CM (complete main)
Format settings, Endianness              : Big
Codec ID                                 : A_AC3
Duration                                 : 41mn 19s
Bit rate mode                            : Constant
Bit rate                                 : 384 Kbps
Channel(s)                               : 6 channels
Channel positions                        : Front: L C R, Side: L R, LFE
Sampling rate                            : 48.0 KHz
Bit depth                                : 16 bits
Compression mode                         : Lossy
Stream size                              : 114 MiB (11%)
Language                                 : German
Default                                  : Yes
Forced                                   : No

Audio #2
ID                                       : 3
Format                                   : AC-3
Format/Info                              : Audio Coding 3
Mode extension                           : CM (complete main)
Format settings, Endianness              : Big
Codec ID                                 : A_AC3
Duration                                 : 41mn 19s
Bit rate mode                            : Constant
Bit rate                                 : 192 Kbps
Channel(s)                               : 2 channels
Channel positions                        : Front: L R
Sampling rate                            : 48.0 KHz
Bit depth                                : 16 bits
Compression mode                         : Lossy
Stream size                              : 56.8 MiB (5%)
Language                                 : English
Default                                  : No
Forced                                   : No



Download:
Share-Online.biz Share-Online.bizShare-Online.bizShare-Online.biz | Rapidgator.net Rapidgator.netRapidgator.netRapidgator.net
 

Kommentare

  1. Geschrieben am 20. August 2018, 13:15 Uhr von Tamperold · #

    Warum wird mir diese Staffel (s05) nicht angezeigt wenn ich links “Marvels Agents of SHIELD” auswähle? Bei anderen Serien war das immer Wunderbar (Game of Thrones)

    / such über das Archiv. Dort werden alle Filme gelistet.
  2. Geschrieben am 31. August 2018, 16:00 Uhr von Tamperold · #

    Ja, dann könnt ihr das Menü rechts komplett Löschen. Denn das finde ich ja auch durch suchen….

    / Im Prinzip hast recht, aber die meisten Filme werden darüber ja gelistet. Es ist ein Problem der Datenbank. Da können wir gar nichts machen. Deshalb, wenn man über das normale Menü nichts findet, das Archiv zusätzlich zu nutzen. Entschuldige.