DNS SERVER ÄNDERN, um der staatlichen Zensur zu umgehen. Sollten wir von eurem Provider gesperrt werden, nutzt den TOR BROWSER oder ändert euren DNS SERVER.

Filmwünsche können bei uns im Forum abgegeben werden

Wir Speichern Nicht




 
 
 
Top Releases
Upgrade.2018.MULTI.COMPLETE....
Durch.die.Wand.The.Dawn.Wall...
Forever.My.Girl.2018.DUAL.CO...
Forever.My.Girl.German.DL.10...
Forever.My.Girl.German.720p....
LBJ.2016.German.AC3.DL.1080p...
American.Animals.2018.German...
Alpha.2018.German.AC3.DL.108...
Das.Haus.der.geheimnisvollen...
Es.war.einmal.ein.Deadpool.2...

Cinedubs
Der.Nussknacker.und.die.vier...
Dont.Worry.weglaufen.geht.ni...
Dont.Worry.weglaufen.geht.ni...
Gaensehaut.2.Gruseliges.Hall...
Aquaman.TS.LD.German.DL.720p...
Eho.Echo.German.720p.WEBRip....
Eho.Echo.German.1080p.WEBRip...
Bad.Times.at.the.El.Royale.2...
Bad.Spies.2018.German.DL.AC3...
Aquaman.2018.GERMAN.AC3.MD.7...

Neuerscheinungen 2018-19
Trauma.Das.Boese.verlangt.Lo...
Trauma.Das.Boese.verlangt.Lo...
Gott.ist.nicht.tot.Ein.Licht...
The.Domestics.2018.DUAL.COMP...
Trauma.Das.Boese.verlangt.Lo...
The.Domestics.German.DL.1080...
The.Domestics.German.720p.Bl...
IO.2019.German.DL.1080p.WEB....
IO.2019.German.DL.720p.WEBRi...
Keepers.Die.Leuchtturmwaerte...

XXX
LethalHardcore.Me.My.Wife.An...
AbbyWinters.19.01.12.Alessia...
POVPornstars.19.01.12.Gia.Lo...
MommysGirl.19.01.12.India.Su...
MomDrips.19.01.09.Claudia.Va...
LANewGirl.19.01.08.Naomi.Blu...
BuccWild.18.04.18.Becky.Bucc...
WakeUpNFuck.E269.Sarah.Cute....
ErotiqueTVLive.18.07.04.Juli...
FatManFuck.19.01.06.Lexus.Jo...
MyLifeInMiami.19.01.09.Vina....
FacialsForever.19.01.07.Layl...
BuccWild.18.04.28.Ebony.Show...
JulesJordan.19.01.09.Paige.O...
Lubed.19.01.09.Sophia.Lux.Gl...
FTVGirls.19.01.09.Scarlet.Ba...
RKPrime.19.01.09.Lela.Star.S...
NothingButCurves.19.01.11.Li...
DigitalPlayground.19.01.12.J...
StepSiblings.19.01.12.Kinsle...

3D
Blade.Runner.2049.3D.2017.Ge...
Walhalla.Rising.3D.2009.DUAL...
Sleepwalker.3D.2011.DUAL.COM...
Bis.an.die.Grenzen.des.Unive...
Best.of.3D.vol.13.-.15.GERMA...
Limbradur.und.die.Magie.der....
Kaluoka.Hina.Das.Zauberriff....
Limbradur.und.die.Magie.der....
Smallfoot.3D.2018.COMPLETE.B...
Smallfoot.Ein.eisigartiges.A...
Skyscraper.3D.2018.German.DL...
Meg.3D.2018.MULTi.COMPLETE.B...
Meg.3D.2018.German.DL.1080p....
Gans.im.Glueck.3D.2018.MULTi...
The.Art.of.Flight.3D.2011.Ge...

Old_Stuff
Todfreunde.aka.Bad.Influence...
Animatrix.2003.German.DL.108...
Animatrix.2003.German.DL.720...
Akte.X.S06.German.DTS.DL.108...
The.Beauty.of.Gemina.Minor.S...
ZZ.Top.Live.from.Texas.2008....
Peter.Hase.2018.German.DL.10...
Akte.X.S05.German.DTS.DL.108...
Akte.X.S04.German.DTS.DL.108...
Akte.X.S03.German.DTS.DL.108...
Dunkirk.1958.COMPLETE.BLURAY...
Das.Wunder.von.Manhattan.199...
The.Amazing.Spiderman.2.Rise...
Rise.of.the.Predator.2014.Ge...
Detective.Dee.und.das.Geheim...

Filme
Grace.und.Frankie.S05.COMPLE...
Paranoiac.Haus.des.Grauens.1...
ZDF.History.-.Damenwahl.Frau...
Grace.and.Frankie.S05.COMPLE...
Criminal.Minds.S14.German.DL...
Criminal.Minds.S14.German.DL...
Brazilian.Gangster.Koenig.de...
Wie.geht.das.E108.Untergetau...
Mausoleum.aka.Grabmal.des.Gr...
Von.legendaeren.Schloessern....
Johnny.English.Man.lebt.nur....
Willow.1988.German.DL.1080p....
Unterwegs.im.Westen.Wer.entr...
Apocalypse.Now.Redux.2001.10...
Brazil.1985.German.DL.1080p....
Leatherheads.Ein.verlockende...
Die.Sieger.aka.American.Flye...
Drachenzaehmen.leicht.gemach...
Escape.at.Dannemora.S01.COMP...
Escape.at.Dannemora.S01.COMP...
Auf.der.Jagd.-.Wem.gehoert.d...
Auf.der.Jagd.-.Wem.gehoert.d...
Terra.X.Expedition.Europa.-....
Batman.v.Superman.Dawn.of.Ju...

 
 
Supergirl.S03.COMPLETE.GERMAN.5.1.DUBBED.DL.AC3.1080p.WEB-DL.h264-TvR
Jahr: 2017
Genre: Action | Abenteuer | Drama
Sprache: Deutsch AC3 | Englisch AC3
Laufzeit: 41min je Folge
Bitrate: 10 Mbps
Format: MKV
Größe: 3 GB je Folge
Release:

Beschreibung:

Die Dramaserie „Supergirl“ handelt von Kara Zor-El (Melissa Benoist), der es gelungen ist während der Zerstörung Kryptons zu entkommen. Eine ganze Weile schaffte sie es danach, sich auf der Erde zu verstecken. Und das, obwohl sie ähnliche Kräfte wie ihr „berühmter Cousin“ (Superman) besitzt. Die 24-jährige Kara entscheidet sich endlich ihre Kräfte zu nutzen und die Heldin zu werden, die sie schon immer sein sollte.



General
Complete name                            : Supergirl.S03E01.Die.Staehlerne.GERMAN.5.1.DUBBED.DL.AC3.1080p.WEB-DL.h264-TvR\tvr-supergirl-s03e01-1080p.mkv
Format                                   : Matroska
Format version                           : Version 4 / Version 2
File size                                : 3.40 GiB
Duration                                 : 40mn 37s
Overall bit rate mode                    : Variable
Overall bit rate                         : 12.0 Mbps
Movie name                               : Supergirl - S03E01 - Die Stählerne
Encoded date                             : UTC 2018-07-06 12:56:41
Writing application                      : mkvmerge v24.0.0 ('Beyond The Pale') 64-bit
Writing library                          : libebml v1.3.6 + libmatroska v1.4.9
Attachment                               : Yes

Video
ID                                       : 1
Format                                   : AVC
Format/Info                              : Advanced Video Codec
Format profile                           : High@L4.0
Format settings, CABAC                   : Yes
Format settings, ReFrames                : 4 frames
Codec ID                                 : V_MPEG4/ISO/AVC
Duration                                 : 40mn 37s
Bit rate mode                            : Variable
Bit rate                                 : 10.7 Mbps
Maximum bit rate                         : 15.0 Mbps
Width                                    : 1 920 pixels
Height                                   : 1 080 pixels
Display aspect ratio                     : 16:9
Frame rate mode                          : Constant
Frame rate                               : 25.000 fps
Color space                              : YUV
Chroma subsampling                       : 4:2:0
Bit depth                                : 8 bits
Scan type                                : Progressive
Bits/(Pixel*Frame)                       : 0.206
Stream size                              : 3.03 GiB (89%)
Title                                    : Supergirl - S03E01 - Die Stählerne
Language                                 : English
Default                                  : Yes
Forced                                   : No
Color primaries                          : BT.709
Transfer characteristics                 : BT.709
Matrix coefficients                      : BT.709

Audio #1
ID                                       : 2
Format                                   : AC-3
Format/Info                              : Audio Coding 3
Mode extension                           : CM (complete main)
Format settings, Endianness              : Big
Codec ID                                 : A_AC3
Duration                                 : 40mn 37s
Bit rate mode                            : Constant
Bit rate                                 : 448 Kbps
Channel(s)                               : 6 channels
Channel positions                        : Front: L C R, Side: L R, LFE
Sampling rate                            : 48.0 KHz
Bit depth                                : 16 bits
Compression mode                         : Lossy
Stream size                              : 130 MiB (4%)
Title                                    : AC3 5.1 @ 448 kbps
Language                                 : German
Default                                  : Yes
Forced                                   : No

Audio #2
ID                                       : 3
Format                                   : AC-3
Format/Info                              : Audio Coding 3
Mode extension                           : CM (complete main)
Format settings, Endianness              : Big
Codec ID                                 : A_AC3
Duration                                 : 40mn 37s
Bit rate mode                            : Constant
Bit rate                                 : 640 Kbps
Channel(s)                               : 6 channels
Channel positions                        : Front: L C R, Side: L R, LFE
Sampling rate                            : 48.0 KHz
Bit depth                                : 16 bits
Compression mode                         : Lossy
Stream size                              : 186 MiB (5%)
Title                                    : AC3 5.1 @ 640 kbps
Language                                 : English
Default                                  : No
Forced                                   : No

Text
ID                                       : 4
Format                                   : UTF-8
Codec ID                                 : S_TEXT/UTF8
Codec ID/Info                            : UTF-8 Plain Text
Title                                    : Full SRT
Language                                 : English
Default                                  : No
Forced                                   : No




Download:
Share-Online.biz Share-Online.bizShare-Online.bizShare-Online.biz
 

Kommentare