Filecrypt zeigt vereinzelt Files als "n/a". Die Downloads sind trotzdem komplett.

DNS SERVER AENDERNum der staatlichen Zensur zu umgehen. Sollten wir von eurem Provider geseprrt werden, nutzt den TOR BROWSER oder ändert euren DNS SERVER.

Filmwünsche können bei uns im Forum abgegeben werden

Wir Speichern Nicht




 
 
 
Top Releases
Maleika.2017.GERMAN.DOKU.108...
Ant-Man.And.The.Wasp.2018.Ge...
Apostle.2018.German.AC3.DL.1...
Brawl.in.Cell.Block.99.UNCUT...
Burning.2.On.Ice.2016.German...
22.Juli.2018.German.AC3.DL.1...
No.Way.Out.Gegen.die.Flammen...
Ant-Man.and.the.Wasp.2018.Ge...
Ant-Man.and.the.Wasp.2018.Ge...
Ant-Man.and.the.Wasp.2018.Ge...

Cinedubs
MEG.Biss.bald.2018.German.AC...
MEG.Biss.bald.2018.German.AC...
Bad.Spies.2018.German.AC3MD....
Bad.Spies.2018.German.AC3MD....
Searching.2018.German.AC3MD....
Searching.2018.German.AC3MD....
211.Cops.Under.Fire.2018.Ger...
211.Cops.Under.Fire.2018.Ger...
MEG.Biss.bald.2018.German.AC...
MEG.Biss.bald.2018.German.AC...

Neuerscheinungen 2017-18
The.Watcher.Willkommen.im.Mo...
Term.Life.Moerderischer.Wett...
Ratter.Er.weiss.alles.ueber....
Maleika.2017.DOCU.GERMAN.COM...
Mr.Right.2015.German.AC3.DL....
Jessica.und.das.Rentier.Pran...
Drone.Toedliche.Mission.2017...
The.Darkest.Minds.Die.Ueberl...
Juice.City.War.1992.German.D...
Der.Augenzeuge.Eyewitness.19...

XXX
EroticaX.18.10.03.Paige.Owen...
ClubSeventeen.18.10.01.Stacy...
CastingCouch-X.18.10.05.Chlo...
Private.18.10.02.Private.Cas...
GirlsOutWest.18.10.01.Penelo...
NewSensations.18.10.05.Candi...
Lubed.18.10.01.Aidra.Fox.Dri...
JulesJordan.18.10.04.Anny.Au...
BoldlyGirls.18.10.05.Sheila....
Confessions.18.10.01.Scarlet...
WildOnCam.18.10.04.Elle.Vone...
GrandpasFuckTeens.18.10.02.L...
KrissKiss.18.08.29.Perfect.B...
Watch4Beauty.18.10.03.Jia.Li...
PornMegaLoad.18.10.04.Natali...
Hustler.18.10.04.Kendra.Lynn...
DaughterSwap.18.10.02.Alexa....
Hustler.18.10.02.Noemie.Bila...
CreampieInAsia.18.10.05.Nok....
KellyMadison.18.10.05.Olivia...

3D
Jurassic.World.Das.gefallene...
Jurassic.World.Das.gefallene...
Best.of.3D.vol.10.-.12.GERMA...
Die.Biene.Maja.2.Die.Honigsp...
Sharknado.6.The.Last.One.3D....
Solo.A.Star.Wars.Story.3D.20...
Solo.A.Star.Wars.Story.3D.20...
Die.Biene.Maja.2.Die.Honigsp...
Avengers.Infinity.War.3D.201...
Avengers.Infinity.War.3D.201...
Rampage.Big.Meets.Bigger.3D....
Rampage.Big.Meets.Bigger.3D....
Rampage.Big.Meets.Bigger.3D....
Winter.Games.3D.2013.DUAL.CO...
Tomb.Raider.3D.2018.German.7...

Old_Stuff
Britney.Spears.Live.The.Femm...
Buffy.The.Vampire.Slayer.199...
IMAX.Ride.Around.The.World.2...
Schimanski.-.Duisburg.Ruhror...
Akte.X.S02.German.DTS.DL.108...
How.I.Met.Your.Mother.S02.Ge...
Akte.X.S01.German.DTS.DL.108...
Den.Himmel.gibts.echt.DL.108...
Vikings.S02.German.DL.1080p....
Be.Kind.Rewind.Abgedreht.200...
Be.Kind.Rewind.Abgedreht.200...
Dracula.The.Dark.Lord.2012.G...
21.2008.German.DL.1080p.BluR...
Achtung.fertig.WK.Swissgerma...
The.Ouija.Exorcism.2015.MULT...

Filme
City.of.Industry.1997.German...
Das.Yakuza.Kartel.German.199...
Doctor.Who.Aus.der.Zeit.gefa...
Immer.Aerger.mit.Sergeant.Bi...
The.Watcher.Willkommen.im.Mo...
Inside.WikiLeaks.Die.fuenfte...
Aus.einem.deutschen.Leben.19...
Ausgeloescht.1987.German.DL....
Ausgequetscht.2009.German.DT...
Auslandseinsatz.2012.German....
Auf.Wiedersehen.Kinder.1987....
Auf.Treu.und.Glauben.2016.Ge...
Auf.eigene.Faust.1959.German...
Auf.Liebe.und.Tod.1983.Germa...
Auf.Kriegsfuss.mit.Major.Pay...
Salman.Khan.-.Love.1991.GERM...
Auf.den.ersten.Blick.1999.Ge...
Decommissioned.Anschlag.auf....
Joshua.Der.Erstgeborene.2007...
Joshua.Der.Erstgeborene.2007...
Totentanz.der.Vampire.1971.G...
Totentanz.der.Vampire.1971.G...
The.Crone.2013.German.1080p....
Tanz.der.Teufel.1981.German....

 
 
Geschichten.Aus.Der.Gruft.GERMAN.1972.DL.1080p.BluRay.x264-GOREHOUNDS
Jahr: 1972
Genre: Horror
Sprache: Deutsch DTS | Englisch DTS
Laufzeit: 1h 32mn
Bitrate: 14.5 Mbps
Format: MKV
Größe: 9.34 GiB
Release:

Beschreibung:

Während einer Besichtigungstour durch uralte Katakomben werden fünf Personen von ihrer Gruppe getrennt. Auf der Suche nach einem Ausgang treffen sie auf den Cryptkeeper, welcher ihnen ihr grausames Schicksal vorhersagt… Joanne tötet an Weihnachten ihren Ehemann um an dessen Lebensversicherung zu kommen. Sie ahnt jedoch nicht, dass bereits ein psychopathischer Serienmörder ihr Haus umschleicht.



Complete name                            : gh-geschichtenausdergruft1080.mkv
Format                                   : Matroska
Format version                           : Version 2
File size                                : 9.34 GiB
Duration                                 : 1h 32mn
Overall bit rate                         : 14.5 Mbps
Encoded date                             : UTC 2018-08-06 20:39:14
Writing application                      : mkvmerge v25.0.0 ('Prog Noir') 64-bit
Writing library                          : libebml v1.3.6 + libmatroska v1.4.9
DURATION                                 : 01:29:55.042000000
NUMBER_OF_FRAMES                         : 572
NUMBER_OF_BYTES                          : 24274
_STATISTICS_WRITING_APP                  : mkvmerge v25.0.0 ('Prog Noir') 64-bit
_STATISTICS_WRITING_DATE_UTC             : 2018-08-06 20:39:14
_STATISTICS_TAGS                         : BPS DURATION NUMBER_OF_FRAMES NUMBER_OF_BYTES

Video
ID                                       : 1
Format                                   : AVC
Format/Info                              : Advanced Video Codec
Format profile                           : High@L4.1
Format settings, CABAC                   : Yes
Format settings, ReFrames                : 4 frames
Codec ID                                 : V_MPEG4/ISO/AVC
Duration                                 : 1h 32mn
Bit rate                                 : 11.2 Mbps
Width                                    : 1 920 pixels
Height                                   : 1 040 pixels
Display aspect ratio                     : 1.85:1
Frame rate mode                          : Constant
Frame rate                               : 24.000 fps
Color space                              : YUV
Chroma subsampling                       : 4:2:0
Bit depth                                : 8 bits
Scan type                                : Progressive
Bits/(Pixel*Frame)                       : 0.234
Stream size                              : 7.21 GiB (77%)
Writing library                          : x264 core 155 r2901 7d0ff22
Encoding settings                        : cabac=1 / ref=4 / deblock=1:-1:-1 / analyse=0x3:0x133 / me=umh / subme=8 / psy=1 / psy_rd=1.00:0.15 / mixed_ref=1 / me_range=16 / chroma_me=1 / trellis=2 / 8x8dct=1 / cqm=0 / deadzone=21,11 / fast_pskip=0 / chroma_qp_offset=-3 / threads=12 / lookahead_threads=2 / sliced_threads=0 / nr=0 / decimate=1 / interlaced=0 / bluray_compat=0 / constrained_intra=0 / bframes=3 / b_pyramid=2 / b_adapt=2 / b_bias=0 / direct=3 / weightb=1 / open_gop=0 / weightp=2 / keyint=240 / keyint_min=24 / scenecut=40 / intra_refresh=0 / rc_lookahead=50 / rc=crf / mbtree=1 / crf=20.0 / qcomp=0.60 / qpmin=0 / qpmax=69 / qpstep=4 / vbv_maxrate=62500 / vbv_bufsize=78125 / crf_max=0.0 / nal_hrd=none / filler=0 / ip_ratio=1.40 / aq=1:1.00
Default                                  : Yes
Forced                                   : No

Audio #1
ID                                       : 2
Format                                   : DTS
Format/Info                              : Digital Theater Systems
Mode                                     : 16
Format settings, Endianness              : Big
Codec ID                                 : A_DTS
Duration                                 : 1h 32mn
Bit rate mode                            : Constant
Bit rate                                 : 1 509 Kbps
Channel(s)                               : 2 channels
Channel positions                        : Front: L R
Sampling rate                            : 48.0 KHz
Bit depth                                : 24 bits
Compression mode                         : Lossy
Stream size                              : 995 MiB (10%)
Language                                 : German
Default                                  : Yes
Forced                                   : No

Audio #2
ID                                       : 3
Format                                   : DTS
Format/Info                              : Digital Theater Systems
Mode                                     : 16
Format settings, Endianness              : Big
Codec ID                                 : A_DTS
Duration                                 : 1h 32mn
Bit rate mode                            : Constant
Bit rate                                 : 1 509 Kbps
Channel(s)                               : 2 channels
Channel positions                        : Front: L R
Sampling rate                            : 48.0 KHz
Bit depth                                : 24 bits
Compression mode                         : Lossy
Stream size                              : 995 MiB (10%)
Language                                 : English
Default                                  : No
Forced                                   : No

Text
ID                                       : 4
Format                                   : UTF-8
Codec ID                                 : S_TEXT/UTF8
Codec ID/Info                            : UTF-8 Plain Text
Language                                 : German
Default                                  : No
Forced                                   : No


Download:
Share Online Share OnlineShare OnlineShare Online
 

Kommentare