HD-AREA wünscht Euch eine besinnliche Weihnachtszeit ;)

DNS SERVER AENDERNum der staatlichen Zensur zu umgehen. Sollten wir von eurem Provider geseprrt werden, nutzt den TOR BROWSER oder ändert euren DNS SERVER.

Filmwünsche können bei uns im Forum abgegeben werden

Wir Speichern Nicht




 
 
 
Top Releases
Flatliners.2017.German.AC3.D...
The.Last.Movie.Star.2017.Ger...
The.Equalizer.2.2018.German....
The.Last.Movie.Star.2017.Ger...
BlacKkKlansman.2018.MULTi.CO...
Black.47.2018.German.DTS.HD....
Black.47.2018.MULTi.COMPLETE...
BlacKkKlansman.2018.German.D...
BlacKkKlansman.2018.German.7...
The.Last.Movie.Star.2017.Ger...

Cinedubs
Night.School.2018.GERMAN.DL....
Night.School.2018.GERMAN.DL....
Gaensehaut.2.Gruseliges.Hall...
Gaensehaut.2.Gruseliges.Hall...
Unknown.User.2.Dark.Web.Germ...
Unknown.User.2.Dark.Web.Germ...
Peppermint.Angel.of.Vengeanc...
Peppermint.Angel.of.Vengeanc...
Venom.German.DL.AC3.Dubbed.1...
Venom.2018.German.AC3D.5.1.D...

Neuerscheinungen 2017-18
Future.World.2018.German.AC3...
Mara.2018.MULTi.COMPLETE.BLU...
Gotti.A.Real.American.Godfat...
Mandy.the.Haunted.Doll.2018....
Mandy.the.Haunted.Doll.2018....
Mandy.the.Haunted.Doll.2018....
Mandy.the.Haunted.Doll.Mandy...
Wildling.2018.German.DL.1080...
Wildling.2018.German.720p.Bl...
Breaking.In.2018.German.DTS....

XXX
FatManFuck.17.10.08.Abbie.XX...
FatManFuck.17.10.03.Peaches....
MatureNL.18.11.30.Glynis.Ire...
Nerd.Pervert.Vol.31.XXX.1080...
MofosBSides.18.12.01.Monica....
MilfHunter.18.12.03.Victoria...
MatureNL.18.11.16.Danica.And...
MetArtX.18.12.01.Sybil.A.Lov...
MatureNL.18.11.23.Amy.Elizab...
MyFriendsHotMom.18.12.02.Van...
MyFamilyPies.18.12.03.Haley....
MonstersOfCock.18.12.02.Kali...
MatureNL.18.11.29.Calina.And...
MetArtX.18.12.03.Lena.Anders...
GroupSexGames.18.12.02.Lulu....
MatureNL.18.11.30.Elizabeth....
FatManFuck.17.10.15.Amber.XX...
Manuels.Maximum.Penetration....
Manuels.Maximum.Penetration....
Military.Minxes.XXX.720p.WEB...

3D
Gans.im.Glueck.3D.2018.MULTi...
The.Art.of.Flight.3D.2011.Ge...
The.End.Of.The.World.3D.2010...
The.First.Avenger.Civil.War....
Die.Unglaublichen.2.2018.3D....
Skyscraper.3D.2018.MULTi.COM...
Ant-Man.And.The.Wasp.3D.2018...
Ant.Man.and.the.Wasp.3D.2018...
Die.Unglaublichen.2.3D.2018....
Die.Unglaublichen.2.2018.3D....
Die.Unglaublichen.2.2018.3D....
Sharknado.6.The.Last.One.3D....
Deep.Kleine.Helden.der.Tiefs...
Deep.3D.2017.MULTI.COMPLETE....
Detective.Dee.und.die.Legend...

Old_Stuff
Akte.X.S04.German.DTS.DL.108...
Akte.X.S03.German.DTS.DL.108...
Dunkirk.1958.COMPLETE.BLURAY...
Das.Wunder.von.Manhattan.199...
The.Amazing.Spiderman.2.Rise...
Rise.of.the.Predator.2014.Ge...
Detective.Dee.und.das.Geheim...
Detective.Dee.Und.Der.Fluch....
Ghost.Rider.Spirit.of.Vengea...
Species.IV.Das.Erwachen.2007...
Species.IV.Das.Erwachen.2007...
Hotel.Transsilvanien.2012.Ge...
The.Dead.2010.German.DL.1080...
The.Dead.2.India.2013.German...
Britney.Spears.Live.The.Femm...

Filme
Vanilla.Sky.2001.German.DL.A...
Midnight.Run.1988.German.AC3...
Vikings.S05.GERMAN.1080p.Web...
Vikings.S05.GERMAN.720p.WebH...
The.Gifted.S02.GERMAN.DL.108...
The.Gifted.S02.GERMAN.720p.H...
Riverdale.US.S03.GERMAN.DL.1...
Riverdale.US.S03.GERMAN.DL.7...
Krypton.S01.COMPLETE.GERMAN....
Get.Shorty.S02.German.DD51.S...
Get.Shorty.S02.German.DD51.S...
Swedish.Dicks.S02.GERMAN.720...
Mission.Impossible.Fallout.2...
Swedish.Dicks.S02.German.DD2...
Vikings.S05.German.DD+51.DL....
Vikings.S05.German.DD+51.DL....
Halloween.II.1981.Remastered...
Ich.Einfach.unverbesserlich....
Category.7.Das.Ende.der.Welt...
Heut.gehn.wir.bummeln.1949.G...
Red.Scorpion.UNRATED.German....
Redbelt.German.DL.1080p.BluR...
Reflecting.Skin.Schrei.in.de...
Regression.2015.German.DL.10...

 
 
IMDb https://www.imdb.com/title/tt4179452//10
The.Last.Kingdom.S02.COMPLETE.German.DL.1080p.BluRay.x264-EXCiTED
Jahr: 2017
Genre: Action | Drama | Geschichte
Sprache: Deutsch DTS | Englisch DTS
Laufzeit: 1h je Folge
Bitrate: 5500 Kbps
Format: MKV
Größe: 3,5 GB je Folge
Release:

Beschreibung:

Der Kampf um England geht weiter: Nach der entscheidenden Schlacht, die Wessex vor den Dänen gerettet, aber vielen Männern das Leben gekostet hat, reist Uhtred in den Norden, um den hinterhältigen Mord an seinem Ziehvater Earl Ragnar zu rächen und sein Erbland zurückzufordern. Auch Alfred richtet seinen Blick auf den von Chaos und Rebellion beherrschten Norden. Sein Wille, ein vereintes England zu schaffen, ist stärker als jemals zuvor, und so setzt er sich für einen neuen König ein: einen angelsächsischen Wikinger, der die verfeindeten Völker vereinen soll.
Uhtred, der weiterhin für das Land seiner Herkunft und gegen das Volk seines Ziehvaters kämpft, muss bedeutende Entscheidungen treffen, die nicht nur sein eigenes Schicksal beeinflussen werden.



General
Complete name                            : The.Last.Kingdom.S02E01.German.DL.1080p.BluRay.x264-EXCiTED\the.last.kingdom.s02e01.german.dl.1080p.bluray.x264-excited.mkv
Format                                   : Matroska
Format version                           : Version 2
File size                                : 3.64 GiB
Duration                                 : 59mn 33s
Overall bit rate                         : 8 744 Kbps
Writing application                      : mkvmerge v4.1.1 ('Bouncin' Back') built on Jul  3 2010 22:54:08
Writing library                          : libebml v1.0.0 + libmatroska v1.0

Video
ID                                       : 1
Format                                   : AVC
Format/Info                              : Advanced Video Codec
Format profile                           : High@L4.1
Format settings, CABAC                   : Yes
Format settings, ReFrames                : 4 frames
Codec ID                                 : V_MPEG4/ISO/AVC
Duration                                 : 59mn 33s
Bit rate                                 : 5 552 Kbps
Width                                    : 1 920 pixels
Height                                   : 1 080 pixels
Display aspect ratio                     : 16:9
Frame rate mode                          : Constant
Frame rate                               : 23.976 fps
Color space                              : YUV
Chroma subsampling                       : 4:2:0
Bit depth                                : 8 bits
Scan type                                : Progressive
Bits/(Pixel*Frame)                       : 0.112
Stream size                              : 2.31 GiB (63%)
Writing library                          : x264 core 152 r2851 ba24899
Encoding settings                        : cabac=1 / ref=4 / deblock=1:-3:-3 / analyse=0x3:0x113 / me=umh / subme=8 / psy=1 / psy_rd=1.00:0.15 / mixed_ref=1 / me_range=16 / chroma_me=1 / trellis=2 / 8x8dct=1 / cqm=0 / deadzone=21,11 / fast_pskip=0 / chroma_qp_offset=-3 / threads=24 / lookahead_threads=4 / sliced_threads=0 / nr=0 / decimate=1 / interlaced=0 / bluray_compat=0 / constrained_intra=0 / bframes=3 / b_pyramid=2 / b_adapt=1 / b_bias=0 / direct=3 / weightb=1 / open_gop=0 / weightp=2 / keyint=240 / keyint_min=23 / scenecut=40 / intra_refresh=0 / rc_lookahead=50 / rc=crf / mbtree=1 / crf=19.0 / qcomp=0.60 / qpmin=10 / qpmax=69 / qpstep=4 / ip_ratio=1.40 / aq=1:1.00
Language                                 : English
Default                                  : Yes
Forced                                   : No

Audio #1
ID                                       : 2
Format                                   : DTS
Format/Info                              : Digital Theater Systems
Mode                                     : 16
Format settings, Endianness              : Big
Codec ID                                 : A_DTS
Duration                                 : 59mn 33s
Bit rate mode                            : Constant
Bit rate                                 : 1 509 Kbps
Channel(s)                               : 6 channels
Channel positions                        : Front: L C R, Side: L R, LFE
Sampling rate                            : 48.0 KHz
Bit depth                                : 24 bits
Compression mode                         : Lossy
Stream size                              : 643 MiB (17%)
Language                                 : German
Default                                  : Yes
Forced                                   : No

Audio #2
ID                                       : 3
Format                                   : DTS
Format/Info                              : Digital Theater Systems
Mode                                     : 16
Format settings, Endianness              : Big
Codec ID                                 : A_DTS
Duration                                 : 59mn 33s
Bit rate mode                            : Constant
Bit rate                                 : 1 509 Kbps
Channel(s)                               : 6 channels
Channel positions                        : Front: L C R, Side: L R, LFE
Sampling rate                            : 48.0 KHz
Bit depth                                : 24 bits
Compression mode                         : Lossy
Stream size                              : 643 MiB (17%)
Language                                 : English
Default                                  : No
Forced                                   : No

Text
ID                                       : 4
Format                                   : UTF-8
Codec ID                                 : S_TEXT/UTF8
Codec ID/Info                            : UTF-8 Plain Text
Language                                 : English
Default                                  : No
Forced                                   : No

Menu
00:00:00.000                             : en:00:00:00.000
00:11:26.560                             : en:00:11:26.560
00:19:21.160                             : en:00:19:21.160
00:29:55.794                             : en:00:29:55.794
00:42:06.941                             : en:00:42:06.941
00:50:07.004                             : en:00:50:07.004
00:58:50.610                             : en:00:58:50.610
00:59:32.235                             : en:00:59:32.235



Download:
Share-Online.biz Share-Online.bizShare-Online.bizShare-Online.biz | Rapidgator.net Rapidgator.netRapidgator.netRapidgator.net |
 

Kommentare