DNS SERVER AENDERNum der staatlichen Zensur zu umgehen. Sollten wir von eurem Provider geseprrt werden, nutzt den TOR BROWSER oder ändert euren DNS SERVER.

Filmwünsche können bei uns im Forum abgegeben werden

Wir Speichern Nicht




 
 
 
Top Releases
Norman.2016.German.AC3D.DL.1...
Wo.steckt.Sidney.Hall.2017.G...
Chappie.2015.German.AC3.DL.1...
Solo.A.Star.Wars.Story.2018....
Der.Buchladen.der.Florance.G...
Jurassic.World.2.Das.gefalle...
Jurassic.World.2.Das.gefalle...
Racer.and.the.Jailbird.2017....
Racer.and.the.Jailbird.2017....
Racer.and.the.Jailbird.2017....

Cinedubs
First.Reformed.2017.German.D...
Mamma.Mia.2.Here.We.Go.Again...
First.Reformed.German.DL.AC3...
The.First.Purge.2018.German....
No.Way.Out.Gegen.die.Flammen...
First.Reformed.German.DL.AC3...
First.Reformed.German.DL.AC3...
The.First.Purge.German.DL.AC...
The.First.Purge.German.DL.AC...
Book.Club.Das.Beste.kommt.n...

Neuerscheinungen 2017-18
Mom.and.Dad.2017.German.AC3....
Jurassic.World.2.Das.gefalle...
Jurassic.World.2.Das.gefalle...
Zombie.Nightmare.1987.MULTi....
The.Boneyard.1991.MULTi.COMP...
Rueckenwind.von.vorn.2018.Ge...
Rueckenwind.von.vorn.2018.Ge...
The.Hurricane.Heist.2018.Ger...
Alte.Zoepfe.2018.German.DL.1...
Alte.Zoepfe.2018.German.DL.7...

XXX
Natsu.No.Omoide.2.XXX.1080p....
My.First.Transsexual.10.XXX....
MonstersOfCock.18.09.09.Bren...
NaughtyOffice.18.09.09.Gia.D...
MySistersHotFriend.18.09.10....
My.First.Transsexual.10.XXX....
MyFamilyPies.18.09.09.Eliza....
MeloneChallenge.18.09.08.Wen...
MatureNL.18.09.06.Agness.XXX...
MySistersHotFriend.18.09.07....
Model.Collection.77.XXX.1080...
MilfsLikeItBig.18.09.07.Kayl...
MilfHunter.18.09.10.Ryan.Smi...
Model.Collection.54.XXX.1080...
NFBusty.18.09.07.Bridgette.B...
My.Baby.Got.Back.Whitewashed...
Natsu.No.Omoide.2.XXX.720p.W...
MatureNL.18.09.04.Sarah.Jane...
MonsterCurves.18.09.07.Bridg...
MetArtX.18.09.10.Kitri.Danci...

3D
Solo.A.Star.Wars.Story.3D.20...
Solo.A.Star.Wars.Story.3D.20...
Die.Biene.Maja.2.Die.Honigsp...
Avengers.Infinity.War.3D.201...
Avengers.Infinity.War.3D.201...
Rampage.Big.Meets.Bigger.3D....
Rampage.Big.Meets.Bigger.3D....
Rampage.Big.Meets.Bigger.3D....
Winter.Games.3D.2013.DUAL.CO...
Tomb.Raider.3D.2018.German.7...
Rampage.Big.Meets.Bigger.3D....
Rampage.Big.Meets.Bigger.3D....
Tomb.Raider.3D.2018.MULTi.CO...
Pacific.Rim.Uprising.3D.2018...
Ready.Player.One.3D.2018.Ger...

Old_Stuff
Schimanski.-.Duisburg.Ruhror...
Akte.X.S02.German.DTS.DL.108...
How.I.Met.Your.Mother.S02.Ge...
Akte.X.S01.German.DTS.DL.108...
Den.Himmel.gibts.echt.DL.108...
Vikings.S02.German.DL.1080p....
Be.Kind.Rewind.Abgedreht.200...
Be.Kind.Rewind.Abgedreht.200...
Dracula.The.Dark.Lord.2012.G...
21.2008.German.DL.1080p.BluR...
Achtung.fertig.WK.Swissgerma...
The.Ouija.Exorcism.2015.MULT...
Meine.liebe.Rabenmutter.germ...
Da.Vincis.Demons.S01.Complet...
Eragon.Das.Vermaechtnis.der....

Filme
Longmire.S05.COMPLETE.GERMAN...
Snowfall.S02.German.DD51.Dub...
Into.the.Badlands.S03.German...
Into.the.Badlands.S03.German...
Animal.Kingdom.S03.GERMAN.DD...
Die.Nadel.1981.German.AC3.DL...
Saw.III.Directors.Cut.2006.G...
Meine.teuflischen.Nachbarn.1...
Gorillas.im.Nebel.1988.Germa...
Paparazzi.2004.German.AC3D.D...
Shaolin.Kickers.aka.Shaolin....
Three.Burials.Die.drei.Begra...
Moulin.Rouge.2001.German.DL....
Jurassic.World.2.Das.gefalle...
Saw.I.Directors.Cut.2004.Ger...
Vier.im.roten.Kreis.1970.Ger...
Liebe.auf.den.ersten.Schlag....
Alter.Ego.Noch.groessere.Pro...
Der.phantastische.Planet.197...
Der.phantastische.Planet.197...
Agatha.Christies.Ein.Unbekan...
Agatha.Christies.Ein.Unbekan...
Argo.2012.German.DL.2160p.UH...
MotoGP.Moto2.Moto3.Saison.20...

 
 
Action.Point.German.DL.720p.BluRay.x264-EmpireHD
Jahr: 2018
Genre: Komödie
Sprache: Deutsch AC3 | Englisch DTS
Laufzeit: 1h 24mn
Bitrate: 4 865 Kbps
Format: MKV
Größe: 2.88 GiB
Release:

Beschreibung:

Der verrückte D.C. (Johnny Knoxville) betreibt einen Vergnügungspark, in dem die Attraktionen und einzelnen Fahrten auf den maximalen Spaß der Besucher ausgelegt sind, was jedoch auf Kosten der Sicherheit geht. Zudem beschäftigt er völlig ungeeignetes Personal, das unqualifiziert und bei der Arbeit nie ganz nüchtern ist. D.C.s Tochter Boogie (Eleanor Worthington-Cox), die er lange nicht gesehen hat, kommt zu Besuch, und nebenan macht ein todschicker, riesengroßer neuer Park auf, der D.C.s runtergekommenen Action Point alt aussehen lässt. Der exzentrische Parkchef versucht daraufhin – unterstützt von einer Gruppe ebenso durchgeknallter Freunde – seinen Park, und nebenbei auch das Verhältnis zu seiner Tochter Boogie, zu retten.



Complete name                            : empire-action.720p.mkv
Format                                   : Matroska
Format version                           : Version 4 / Version 2
File size                                : 2.88 GiB
Duration                                 : 1h 24mn
Overall bit rate                         : 4 865 Kbps
Movie name                               : Action.Point.German.DL.720p.BluRay.x264-EmpireHD
Encoded date                             : UTC 2018-08-12 07:29:36
Writing application                      : mkvmerge v24.0.0 ('Beyond The Pale') 64-bit
Writing library                          : libebml v1.3.6 + libmatroska v1.4.9
DURATION                                 : 00:55:39.622000000
NUMBER_OF_FRAMES                         : 5
NUMBER_OF_BYTES                          : 109
_STATISTICS_WRITING_APP                  : mkvmerge v24.0.0 ('Beyond The Pale') 64-bit
_STATISTICS_WRITING_DATE_UTC             : 2018-08-12 07:29:36
_STATISTICS_TAGS                         : BPS DURATION NUMBER_OF_FRAMES NUMBER_OF_BYTES

Video
ID                                       : 1
Format                                   : AVC
Format/Info                              : Advanced Video Codec
Format profile                           : High@L4.1
Format settings, CABAC                   : Yes
Format settings, ReFrames                : 5 frames
Codec ID                                 : V_MPEG4/ISO/AVC
Duration                                 : 1h 24mn
Bit rate                                 : 2 620 Kbps
Width                                    : 1 280 pixels
Height                                   : 536 pixels
Display aspect ratio                     : 2.40:1
Frame rate mode                          : Constant
Frame rate                               : 23.976 fps
Color space                              : YUV
Chroma subsampling                       : 4:2:0
Bit depth                                : 8 bits
Scan type                                : Progressive
Bits/(Pixel*Frame)                       : 0.159
Stream size                              : 1.55 GiB (54%)
Writing library                          : x264 core 155 r2901 7d0ff22
Encoding settings                        : cabac=1 / ref=5 / deblock=1:-2:-2 / analyse=0x3:0x133 / me=umh / subme=10 / psy=1 / psy_rd=1.00:0.15 / mixed_ref=1 / me_range=16 / chroma_me=1 / trellis=2 / 8x8dct=1 / cqm=0 / deadzone=21,11 / fast_pskip=0 / chroma_qp_offset=-3 / threads=17 / lookahead_threads=1 / sliced_threads=0 / nr=0 / decimate=1 / interlaced=0 / bluray_compat=0 / constrained_intra=0 / bframes=3 / b_pyramid=2 / b_adapt=2 / b_bias=0 / direct=3 / weightb=1 / open_gop=0 / weightp=2 / keyint=240 / keyint_min=23 / scenecut=40 / intra_refresh=0 / rc_lookahead=50 / rc=crf / mbtree=1 / crf=20.0 / qcomp=0.60 / qpmin=0 / qpmax=69 / qpstep=4 / ip_ratio=1.40 / aq=1:1.00
Default                                  : Yes
Forced                                   : No

Audio #1
ID                                       : 2
Format                                   : AC-3
Format/Info                              : Audio Coding 3
Mode extension                           : CM (complete main)
Format settings, Endianness              : Big
Codec ID                                 : A_AC3
Duration                                 : 1h 24mn
Bit rate mode                            : Constant
Bit rate                                 : 640 Kbps
Channel(s)                               : 6 channels
Channel positions                        : Front: L C R, Side: L R, LFE
Sampling rate                            : 48.0 KHz
Bit depth                                : 16 bits
Compression mode                         : Lossy
Stream size                              : 387 MiB (13%)
Language                                 : German
Default                                  : Yes
Forced                                   : No

Audio #2
ID                                       : 3
Format                                   : DTS
Format/Info                              : Digital Theater Systems
Mode                                     : 16
Format settings, Endianness              : Big
Codec ID                                 : A_DTS
Duration                                 : 1h 24mn
Bit rate mode                            : Constant
Bit rate                                 : 1 509 Kbps
Channel(s)                               : 6 channels
Channel positions                        : Front: L C R, Side: L R, LFE
Sampling rate                            : 48.0 KHz
Bit depth                                : 24 bits
Compression mode                         : Lossy
Stream size                              : 913 MiB (31%)
Language                                 : English
Default                                  : No
Forced                                   : No

Text
ID                                       : 4
Format                                   : UTF-8
Codec ID                                 : S_TEXT/UTF8
Codec ID/Info                            : UTF-8 Plain Text
Language                                 : German
Default                                  : Yes
Forced                                   : Yes


Download:
Share Online Share OnlineShare OnlineShare Online
 

Kommentare