DNS SERVER AENDERNum der staatlichen Zensur zu umgehen. Sollten wir von eurem Provider geseprrt werden, nutzt den TOR BROWSER oder ändert euren DNS SERVER.

Filmwünsche können bei uns im Forum abgegeben werden

Wir Speichern Nicht




 
 
 
Top Releases
Norman.2016.German.AC3D.DL.1...
Wo.steckt.Sidney.Hall.2017.G...
Chappie.2015.German.AC3.DL.1...
Solo.A.Star.Wars.Story.2018....
Der.Buchladen.der.Florance.G...
Jurassic.World.2.Das.gefalle...
Jurassic.World.2.Das.gefalle...
Racer.and.the.Jailbird.2017....
Racer.and.the.Jailbird.2017....
Racer.and.the.Jailbird.2017....

Cinedubs
First.Reformed.2017.German.D...
Mamma.Mia.2.Here.We.Go.Again...
First.Reformed.German.DL.AC3...
The.First.Purge.2018.German....
No.Way.Out.Gegen.die.Flammen...
First.Reformed.German.DL.AC3...
First.Reformed.German.DL.AC3...
The.First.Purge.German.DL.AC...
The.First.Purge.German.DL.AC...
Book.Club.Das.Beste.kommt.n...

Neuerscheinungen 2017-18
Mom.and.Dad.2017.German.AC3....
Jurassic.World.2.Das.gefalle...
Jurassic.World.2.Das.gefalle...
Zombie.Nightmare.1987.MULTi....
The.Boneyard.1991.MULTi.COMP...
Rueckenwind.von.vorn.2018.Ge...
Rueckenwind.von.vorn.2018.Ge...
The.Hurricane.Heist.2018.Ger...
Alte.Zoepfe.2018.German.DL.1...
Alte.Zoepfe.2018.German.DL.7...

XXX
Natsu.No.Omoide.2.XXX.1080p....
My.First.Transsexual.10.XXX....
MonstersOfCock.18.09.09.Bren...
NaughtyOffice.18.09.09.Gia.D...
MySistersHotFriend.18.09.10....
My.First.Transsexual.10.XXX....
MyFamilyPies.18.09.09.Eliza....
MeloneChallenge.18.09.08.Wen...
MatureNL.18.09.06.Agness.XXX...
MySistersHotFriend.18.09.07....
Model.Collection.77.XXX.1080...
MilfsLikeItBig.18.09.07.Kayl...
MilfHunter.18.09.10.Ryan.Smi...
Model.Collection.54.XXX.1080...
NFBusty.18.09.07.Bridgette.B...
My.Baby.Got.Back.Whitewashed...
Natsu.No.Omoide.2.XXX.720p.W...
MatureNL.18.09.04.Sarah.Jane...
MonsterCurves.18.09.07.Bridg...
MetArtX.18.09.10.Kitri.Danci...

3D
Solo.A.Star.Wars.Story.3D.20...
Solo.A.Star.Wars.Story.3D.20...
Die.Biene.Maja.2.Die.Honigsp...
Avengers.Infinity.War.3D.201...
Avengers.Infinity.War.3D.201...
Rampage.Big.Meets.Bigger.3D....
Rampage.Big.Meets.Bigger.3D....
Rampage.Big.Meets.Bigger.3D....
Winter.Games.3D.2013.DUAL.CO...
Tomb.Raider.3D.2018.German.7...
Rampage.Big.Meets.Bigger.3D....
Rampage.Big.Meets.Bigger.3D....
Tomb.Raider.3D.2018.MULTi.CO...
Pacific.Rim.Uprising.3D.2018...
Ready.Player.One.3D.2018.Ger...

Old_Stuff
Schimanski.-.Duisburg.Ruhror...
Akte.X.S02.German.DTS.DL.108...
How.I.Met.Your.Mother.S02.Ge...
Akte.X.S01.German.DTS.DL.108...
Den.Himmel.gibts.echt.DL.108...
Vikings.S02.German.DL.1080p....
Be.Kind.Rewind.Abgedreht.200...
Be.Kind.Rewind.Abgedreht.200...
Dracula.The.Dark.Lord.2012.G...
21.2008.German.DL.1080p.BluR...
Achtung.fertig.WK.Swissgerma...
The.Ouija.Exorcism.2015.MULT...
Meine.liebe.Rabenmutter.germ...
Da.Vincis.Demons.S01.Complet...
Eragon.Das.Vermaechtnis.der....

Filme
Longmire.S05.COMPLETE.GERMAN...
Snowfall.S02.German.DD51.Dub...
Into.the.Badlands.S03.German...
Into.the.Badlands.S03.German...
Animal.Kingdom.S03.GERMAN.DD...
Die.Nadel.1981.German.AC3.DL...
Saw.III.Directors.Cut.2006.G...
Meine.teuflischen.Nachbarn.1...
Gorillas.im.Nebel.1988.Germa...
Paparazzi.2004.German.AC3D.D...
Shaolin.Kickers.aka.Shaolin....
Three.Burials.Die.drei.Begra...
Moulin.Rouge.2001.German.DL....
Jurassic.World.2.Das.gefalle...
Saw.I.Directors.Cut.2004.Ger...
Vier.im.roten.Kreis.1970.Ger...
Liebe.auf.den.ersten.Schlag....
Alter.Ego.Noch.groessere.Pro...
Der.phantastische.Planet.197...
Der.phantastische.Planet.197...
Agatha.Christies.Ein.Unbekan...
Agatha.Christies.Ein.Unbekan...
Argo.2012.German.DL.2160p.UH...
MotoGP.Moto2.Moto3.Saison.20...

 
 
Die.Simpsons.S29.GERMAN.DUBBED.720p.HDTV.x264-ZZGtv
Jahr: 2017
Genre: Animation | Komödie
Sprache: Deutsch AC3
Laufzeit: 21min je Folge
Bitrate: 3300 Kbps
Format: MKV
Größe: 550 MB je Folge
Release:

Beschreibung:

Die animierte Serie „The Simpsons“ erzählt die Abenteuer der gleichnamige gelben Familie, die in der fiktiven Stadt Springfield lebt. Ihre Mitglieder sind: Homer Simpson (Dan Castellaneta), Marge Simpson (Julie Kavner), Bart Simpson (Nancy Cartwright), Lisa Simpson, The Simpsons (Yeardley Smith) und Maggie Simpson, The Simpsons (Nancy Cartwright). Zur erweiterten Familie gehören Grampa Grampa, The Simpsons Abraham Simpson (Dan Castellaneta) und Marges Zwillingsschwestern Patty & Selma Bouvier, The Simpsons (Julie Kavner).

 

 

enthaltene Folgen:

Die.Simpsons.S29E01.Die.Sklavsons.GERMAN.DUBBED.720p.HDTV.x264-ZZGtv

Die.Simpsons.S29E02.Sad.Girl.GERMAN.DUBBED.720p.HDTV.x264-ZZGtv

Die.Simpsons.S29E03.Talent.mit.Pfiff.GERMAN.DUBBED.720p.HDTV.x264-ZZGtv

Folge 04 noch nicht released

Die.Simpsons.S29E05.Grampa.ist.ganz.Ohr.GERMAN.DUBBED.720p.HDTV.x264-ZZGtv

Die.Simpsons.S29E06.Blau.im.Amt.GERMAN.DUBBED.720p.HDTV.x264-ZZGtv

Die.Simpsons.S29E07.Die.Pin.Pals.GERMAN.DUBBED.720p.HDTV.x264-ZZGtv NEU



General
Complete name                            : Die.Simpsons.S29E01.Die.Sklavsons.GERMAN.DUBBED.720p.HDTV.x264-ZZGtv\zzgtv-simpsons-s29e01.mkv
Format                                   : Matroska
Format version                           : Version 2
File size                                : 540 MiB
Duration                                 : 20mn 39s
Overall bit rate                         : 3 656 Kbps
Encoded date                             : UTC 2018-08-14 08:12:04
Writing application                      : mkvmerge v3.1.0 ('HELLO KITTY') built on Feb 16 2010 03:12:16
Writing library                          : libebml v0.7.9 + libmatroska v0.8.1

Video
ID                                       : 1
Format                                   : AVC
Format/Info                              : Advanced Video Codec
Format profile                           : High@L4.1
Format settings, CABAC                   : Yes
Format settings, ReFrames                : 5 frames
Codec ID                                 : V_MPEG4/ISO/AVC
Duration                                 : 20mn 39s
Bit rate                                 : 3 391 Kbps
Width                                    : 1 280 pixels
Height                                   : 720 pixels
Display aspect ratio                     : 16:9
Frame rate mode                          : Constant
Frame rate                               : 25.000 fps
Original frame rate                      : 23.976 fps
Color space                              : YUV
Chroma subsampling                       : 4:2:0
Bit depth                                : 8 bits
Scan type                                : Progressive
Bits/(Pixel*Frame)                       : 0.147
Stream size                              : 501 MiB (93%)
Writing library                          : x264 core 152 r2851 ba24899
Encoding settings                        : cabac=1 / ref=5 / deblock=1:0:0 / analyse=0x3:0x113 / me=hex / subme=8 / psy=1 / psy_rd=1.00:0.00 / mixed_ref=1 / me_range=16 / chroma_me=1 / trellis=2 / 8x8dct=1 / cqm=0 / deadzone=21,11 / fast_pskip=1 / chroma_qp_offset=-2 / threads=22 / lookahead_threads=3 / sliced_threads=0 / nr=0 / decimate=1 / interlaced=0 / bluray_compat=0 / constrained_intra=0 / bframes=3 / b_pyramid=2 / b_adapt=1 / b_bias=0 / direct=3 / weightb=1 / open_gop=0 / weightp=2 / keyint=250 / keyint_min=23 / scenecut=40 / intra_refresh=0 / rc_lookahead=50 / rc=crf / mbtree=1 / crf=18.0 / qcomp=0.60 / qpmin=0 / qpmax=69 / qpstep=4 / ip_ratio=1.40 / aq=1:1.00
Default                                  : Yes
Forced                                   : No
Matrix coefficients                      : BT.709

Audio
ID                                       : 2
Format                                   : AC-3
Format/Info                              : Audio Coding 3
Mode extension                           : CM (complete main)
Format settings, Endianness              : Big
Codec ID                                 : A_AC3
Duration                                 : 20mn 39s
Bit rate mode                            : Constant
Bit rate                                 : 192 Kbps
Channel(s)                               : 2 channels
Channel positions                        : Front: L R
Sampling rate                            : 48.0 KHz
Bit depth                                : 16 bits
Compression mode                         : Lossy
Stream size                              : 28.4 MiB (5%)
Default                                  : Yes
Forced                                   : No



Download:
Share-Online.biz Share-Online.bizShare-Online.bizShare-Online.biz | Rapidgator.net Rapidgator.netRapidgator.netRapidgator.net
 

Kommentare