Filecrypt zeigt vereinzelt Files als "n/a". Die Downloads sind trotzdem komplett.

DNS SERVER AENDERNum der staatlichen Zensur zu umgehen. Sollten wir von eurem Provider geseprrt werden, nutzt den TOR BROWSER oder ändert euren DNS SERVER.

Filmwünsche können bei uns im Forum abgegeben werden

Wir Speichern Nicht




 
 
 
Top Releases
Oceans.8.2018.German.AC3.DL....
Constantine.City.of.Demons.2...
Meg.2018.German.Dubbed.RETAi...
Meg.2018.German.Dubbed.RETAi...
Die.Unglaublichen.2.2018.Ger...
Logan.Noir.Edition.2017.MULT...
Hotel.Artemis.2018.German.AC...
Ant-Man.2015.German.AC3.DL.1...
In.den.Gaengen.2018.German.A...
Oceans.8.2018.MULTi.COMPLETE...

Cinedubs
10x10.2018.German.AC3D.DL.10...
Predator.Upgrade.German.DL.A...
Predator.Upgrade.German.DL.A...
10×10.2018.German.AC3D.DL.1...
10×10.2018.German.AC3D.DL.7...
Sicario.2.German.DL.AC3.Dubb...
Sicario.2.German.DL.AC3.Dubb...
Hotel.Artemis.German.DL.AC3....
Mission.Impossible.Fallout.2...
Mission.Impossible.Fallout.2...

Neuerscheinungen 2017-18
Ein.gewisser.Herr.Gran.1933....
Vampire.gegen.Herakles.The.V...
Steig.Nicht.Aus.2018.German....
Der.Falke.und.der.Schneemann...
Gate.Die.Unterirdischen.1987...
Hostile.2017.DUAL.COMPLETE.B...
Stoppt.die.Todesfahrt.der.U-...
Zorro.1975.MULTi.COMPLETE.BL...
Meg.The.Meg.2018.COMPLETE.UH...
Skin.Creepers.2018.GERMAN.CO...

XXX
FoxxedUp.18.10.23.Eden.Sin.C...
DogHouseDigital.18.10.28.Cha...
FakeTaxi.18.10.31.Rhiannon.R...
FTVGirls.18.10.30.Mazzy.Tall...
EuroTeenErotica.18.10.29.Min...
EvilAngel.Cum.Filled.Schoolg...
ATKGirlfriends.18.10.31.Kenz...
FootsieBabes.18.10.28.Luna.C...
DevilsFilm.18.10.31.Alexandr...
EvilAngel.Hookup.Hotshot.Sex...
EternalDesire.18.10.31.Alice...
DorcelClub.18.10.29.Cherry.K...
Fitting-Room.18.10.29.Adrian...
BustyArianna.18.09.21.Boob.M...
DevilsFilm.18.10.28.Claudia....
FakeTaxi.18.10.28.Ava.Koxxx....
BustyArianna.18.09.27.Beach....
FTVMilfs.18.10.30.Christy.Lo...
BustyArianna.18.09.15.Ariann...
DontBreakMe.18.10.31.Selena....

3D
Ant-Man.And.The.Wasp.3D.2018...
Ant.Man.and.the.Wasp.3D.2018...
Die.Unglaublichen.2.3D.2018....
Die.Unglaublichen.2.2018.3D....
Die.Unglaublichen.2.2018.3D....
Sharknado.6.The.Last.One.3D....
Deep.Kleine.Helden.der.Tiefs...
Deep.3D.2017.MULTI.COMPLETE....
Detective.Dee.und.die.Legend...
Detective.Dee.und.die.Legend...
Skyscraper.3D.German.DL.AC3....
Ant-Man.and.the.Wasp.2018.3D...
Jurassic.World.Das.gefallene...
Jurassic.World.Das.gefallene...
Best.of.3D.vol.10.-.12.GERMA...

Old_Stuff
Detective.Dee.und.das.Geheim...
Detective.Dee.Und.Der.Fluch....
Ghost.Rider.Spirit.of.Vengea...
Species.IV.Das.Erwachen.2007...
Species.IV.Das.Erwachen.2007...
Hotel.Transsilvanien.2012.Ge...
The.Dead.2010.German.DL.1080...
The.Dead.2.India.2013.German...
Britney.Spears.Live.The.Femm...
Buffy.The.Vampire.Slayer.199...
IMAX.Ride.Around.The.World.2...
Schimanski.-.Duisburg.Ruhror...
Akte.X.S02.German.DTS.DL.108...
How.I.Met.Your.Mother.S02.Ge...
Akte.X.S01.German.DTS.DL.108...

Filme
Oceans.8.2018.German.DL.2160...
The.Walking.Dead.S09.UNCUT.G...
The.Walking.Dead.S09.UNCUT.G...
Modern.Family.S09.GERMAN.DUB...
Legends.of.Tomorrow.S03.GERM...
Xanadu.1980.German.AC3D.DL.7...
Evet.ich.will.2008.German.DT...
Oceans.8.2018.German.DL.2160...
Spill.Toedlicher.Virus.1996....
Cluny.Brown.auf.Freiersfuess...
Exit.Lauf.um.dein.Leben.2006...
Weiblich.ledig.jung.sucht.ak...
Viva.Maria.1965.German.1080p...
Die.Unglaublichen.2.2018.Ger...
Die.Unglaublichen.2.2018.Ger...
ACDC.LIVE.4.Disc.Collectors....
Mars.S02.GERMAN.DL.1080p.HDT...
The.Originals.S05.GERMAN.720...
Supernatural.S13.DL.DD51.Dub...
Supernatural.S13.DL.DD51.Dub...
Modern.Family.S09.GERMAN.DUB...
Power.2014.S05.German.DL.DUB...
Power.2014.S05.German.DL.DUB...
Ray.Donovan.S06.GERMAN.DUBBE...

 
 
Der.Einsatz.aka.The.Recruit.2003.German.AC3.DL.1080p.BluRay.x265-FuN
Jahr: 2003
Genre: Action | Drama | Mystery
Sprache: Deutsch AC3 | Englisch AC3
Laufzeit: 1h 55mn
Bitrate: 2 668 Kbps
Format: MKV
Größe: 2.14 GiB
Release:

Beschreibung:

Der hochintelligente Harvard-Absolvent James Clayton (C. Farrell) ist auf dem Arbeitsmarkt heiß begehrt. Auch CIA-Anwerber Walter Burke (A. Pacino) hat den jungen, brillanten Computer-Spezialisten ins Auge gefasst und versucht diesen um jeden Preis für das CIA zu gewinnen. Überzeugungsarbeit und die Tatsache, dass Claytons Vater auch CIA-Agent war, bis er jedoch bei einem Flugzeugabsturz ums Leben kam, lassen ihn einwilligen am Trainingsprogramm für Nachwuchsagenten teilzunehmen. Während seiner Ausbildung lernt er Layla (B. Moynahan) kennen und verliebt sich in sie. Als Clayton jedoch von Burke beauftragt wird in den eigenen Reihen einen Maulwurf ausfindig zu machen, wird die Beziehung zu Layla zu einem Problem ...




Format                                   : Matroska
Format version                           : Version 4 / Version 2
File size                                : 2.14 GiB
Duration                                 : 1h 55mn
Overall bit rate                         : 2 668 Kbps
Movie name                               : Der Einsatz
Encoded date                             : UTC 2018-07-18 14:49:39
Writing application                      : mkvmerge v20.0.0 ('I Am The Sun') 64-bit
Writing library                          : libebml v1.3.5 + libmatroska v1.4.8
DURATION                                 : 01:49:56.171000000
NUMBER_OF_FRAMES                         : 1007
NUMBER_OF_BYTES                          : 46798
_STATISTICS_WRITING_APP                  : mkvmerge v20.0.0 ('I Am The Sun') 64-bit
_STATISTICS_WRITING_DATE_UTC             : 2018-07-18 14:49:39
_STATISTICS_TAGS                         : BPS DURATION NUMBER_OF_FRAMES NUMBER_OF_BYTES

Video
ID                                       : 1
Format                                   : HEVC
Format/Info                              : High Efficiency Video Coding
Format profile                           : Main@L4.0
Codec ID                                 : V_MPEGH/ISO/HEVC
Duration                                 : 1h 55mn
Bit rate                                 : 1 847 Kbps
Width                                    : 1 920 pixels
Height                                   : 820 pixels
Display aspect ratio                     : 2.35:1
Frame rate mode                          : Constant
Frame rate                               : 23.976 fps
Color space                              : YUV
Chroma subsampling                       : 4:2:0
Bit depth                                : 8 bits
Bits/(Pixel*Frame)                       : 0.049
Stream size                              : 1.48 GiB (69%)
Writing library                          : x265 2.6:[Windows][GCC 7.2.0][64 bit] 8bit+10bit+12bit
Encoding settings                        : cpuid=1173503 / frame-threads=3 / numa-pools=8 / wpp / no-pmode / no-pme / no-psnr / no-ssim / log-level=2 / input-csp=1 / input-res=1920x820 / interlace=0 / total-frames=0 / level-idc=0 / high-tier=1 / uhd-bd=0 / ref=3 / no-allow-non-conformance / no-repeat-headers / annexb / no-aud / no-hrd / info / hash=0 / no-temporal-layers / open-gop / min-keyint=24 / keyint=240 / bframes=4 / b-adapt=0 / b-pyramid / bframe-bias=0 / rc-lookahead=15 / lookahead-slices=5 / scenecut=40 / no-intra-refresh / ctu=64 / min-cu-size=8 / no-rect / no-amp / max-tu-size=32 / tu-inter-depth=1 / tu-intra-depth=1 / limit-tu=0 / rdoq-level=0 / dynamic-rd=0.00 / no-ssim-rd / signhide / no-tskip / nr-intra=0 / nr-inter=0 / no-constrained-intra / no-strong-intra-smoothing / max-merge=2 / limit-refs=3 / no-limit-modes / me=1 / subme=2 / merange=57 / temporal-mvp / weightp / no-weightb / no-analyze-src-pics / deblock=0:0 / no-sao / no-sao-non-deblock / rd=2 / no-early-skip / rskip / fast-intra / no-tskip-fast / no-cu-lossless / no-b-intra / no-splitrd-skip / rdpenalty=0 / psy-rd=2.00 / psy-rdoq=0.00 / no-rd-refine / analysis-reuse-mode=0 / no-lossless / cbqpoffs=0 / crqpoffs=0 / rc=crf / crf=21.0 / qcomp=0.60 / qpstep=4 / stats-write=0 / stats-read=0 / ipratio=1.40 / pbratio=1.30 / aq-mode=1 / aq-strength=1.00 / cutree / zone-count=0 / no-strict-cbr / qg-size=32 / no-rc-grain / qpmax=69 / qpmin=0 / no-const-vbv / sar=1 / overscan=0 / videoformat=5 / range=0 / colorprim=1 / transfer=1 / colormatrix=1 / chromaloc=0 / display-window=0 / max-cll=0,0 / min-luma=0 / max-luma=255 / log2-max-poc-lsb=8 / vui-timing-info / vui-hrd-info / slices=1 / no-opt-qp-pps / no-opt-ref-list-length-pps / no-multi-pass-opt-rps / scenecut-bias=0.05 / no-opt-cu-delta-qp / no-aq-motion / no-hdr / no-hdr-opt / no-dhdr10-opt / analysis-reuse-level=5 / scale-factor=0 / refine-intra=0 / refine-inter=0 / refine-mv=0 / no-limit-sao / ctu-info=0 / no-lowpass-dct / refine-mv-type=0 / copy-pic=1
Default                                  : Yes
Forced                                   : No
DURATION                                 : 01:55:00.144000000
NUMBER_OF_FRAMES                         : 165438
NUMBER_OF_BYTES                          : 1591293523
_STATISTICS_WRITING_APP                  : mkvmerge v20.0.0 ('I Am The Sun') 64-bit
_STATISTICS_WRITING_DATE_UTC             : 2018-07-18 14:49:39
_STATISTICS_TAGS                         : BPS DURATION NUMBER_OF_FRAMES NUMBER_OF_BYTES

Audio #1
ID                                       : 2
Format                                   : AC-3
Format/Info                              : Audio Coding 3
Mode extension                           : CM (complete main)
Format settings, Endianness              : Big
Codec ID                                 : A_AC3
Duration                                 : 1h 55mn
Bit rate mode                            : Constant
Bit rate                                 : 384 Kbps
Channel(s)                               : 6 channels
Channel positions                        : Front: L C R, Side: L R, LFE
Sampling rate                            : 48.0 KHz
Bit depth                                : 16 bits
Compression mode                         : Lossy
Stream size                              : 316 MiB (14%)
Title                                    : Surround
Language                                 : German
Default                                  : Yes
Forced                                   : No
DURATION                                 : 01:54:59.072000000
NUMBER_OF_FRAMES                         : 215596
NUMBER_OF_BYTES                          : 331155456
_STATISTICS_WRITING_APP                  : mkvmerge v20.0.0 ('I Am The Sun') 64-bit
_STATISTICS_WRITING_DATE_UTC             : 2018-07-18 14:49:39
_STATISTICS_TAGS                         : BPS DURATION NUMBER_OF_FRAMES NUMBER_OF_BYTES

Audio #2
ID                                       : 3
Format                                   : AC-3
Format/Info                              : Audio Coding 3
Mode extension                           : CM (complete main)
Format settings, Endianness              : Big
Codec ID                                 : A_AC3
Duration                                 : 1h 55mn
Bit rate mode                            : Constant
Bit rate                                 : 384 Kbps
Channel(s)                               : 6 channels
Channel positions                        : Front: L C R, Side: L R, LFE
Sampling rate                            : 48.0 KHz
Bit depth                                : 16 bits
Compression mode                         : Lossy
Stream size                              : 316 MiB (14%)
Title                                    : Surround
Language                                 : English
Default                                  : No
Forced                                   : No
DURATION                                 : 01:54:59.072000000
NUMBER_OF_FRAMES                         : 215596
NUMBER_OF_BYTES                          : 331155456
_STATISTICS_WRITING_APP                  : mkvmerge v20.0.0 ('I Am The Sun') 64-bit
_STATISTICS_WRITING_DATE_UTC             : 2018-07-18 14:49:39
_STATISTICS_TAGS                         : BPS DURATION NUMBER_OF_FRAMES NUMBER_OF_BYTES

Text #1
ID                                       : 4
Format                                   : UTF-8
Codec ID                                 : S_TEXT/UTF8
Codec ID/Info                            : UTF-8 Plain Text
Title                                    : FULL
Language                                 : German
Default                                  : No
Forced                                   : No
DURATION                                 : 01:49:56.173000000
NUMBER_OF_FRAMES                         : 4298
NUMBER_OF_BYTES                          : 145814795
_STATISTICS_WRITING_APP                  : mkvmerge v20.0.0 ('I Am The Sun') 64-bit
_STATISTICS_WRITING_DATE_UTC             : 2018-07-18 14:49:39
_STATISTICS_TAGS                         : BPS DURATION NUMBER_OF_FRAMES NUMBER_OF_BYTES

Text #2
ID                                       : 5
Format                                   : PGS
Muxing mode                              : zlib
Codec ID                                 : S_HDMV/PGS
Codec ID/Info                            : The same subtitle format used on BDs/HD-DVDs
Title                                    : PGS FULL
Language                                 : German
Default                                  : No
Forced                                   : No



Download:
Share Online Share OnlineShare OnlineShare Online
 

Kommentare