DNS SERVER AENDERNum der staatlichen Zensur zu umgehen. Sollten wir von eurem Provider geseprrt werden, nutzt den TOR BROWSER oder ändert euren DNS SERVER.

Filmwünsche können bei uns im Forum abgegeben werden

Wir Speichern Nicht




 
 
 
Top Releases
Outrage.Coda.GERMAN.2017.DL....
Outrage.Coda.GERMAN.2017.DL....
Solo.A.Star.Wars.Story.2018....
Early.Man.Steinzeit.bereit.2...
The.Kings.Ring.Die.Letzte.Sc...
Bleach.2018.German.DL.AC3.10...
Bleach.2018.German.DL.AC3.72...
Solo.A.Star.Wars.Story.2018....
Vorbilder.aka.Role.Models.UN...
Freddy.Eddy.2016.German.AC3....

Cinedubs
The.First.Purge.German.DL.AC...
The.First.Purge.German.DL.AC...
Hotel.Transsilvanien.3.Ein.M...
Hotel.Transsilvanien.3.Ein.M...
Meg.German.DL.AC3.Dubbed.720...
Meg.German.DL.AC3.Dubbed.108...
Jurassic.World.2.Das.gefalle...
Mission.Impossible.Fallout.G...
Mission.Impossible.Fallout.G...
Sicario.2.2018.German.AC3MD....

Neuerscheinungen 2017-18
Hes.Out.There.2018.GERMAN.DL...
Hes.Out.There.2018.GERMAN.DL...
Weltengaenger.2018.GERMAN.10...
Weltengaenger.2018.GERMAN.72...
Weltengaenger.2018.GERMAN.DU...
Zu.neuen.Ufern.1937.GERMAN.C...
Violet.Evergarden.Vol1.D1+2....
Robin.Hood.2010.MULTi.COMPLE...
Das.Blutbiest.The.Blood.Beas...
Der.Blaufuchs.1938.GERMAN.CO...

XXX
Boober.2.XXX.iNTERNAL.720p.W...
CherryPimps.18.09.10.Krissy....
BrownBunnies.18.09.07.Honey....
ATKHairy.18.09.09.Andy.Moon....
BrazzersExxtra.18.09.10.Lela...
BrattySis.18.09.07.Ashely.Oc...
WankItNow.17.10.03.Zoe.Page....
Beat.My.Beanbag.XXX.1080p.WE...
BrickYates.18.08.28.Alexis.C...
WoodmanCastingX.15.12.29.Ros...
Bang.RealTeens.18.09.10.Bamb...
WankItNow.17.10.04.Charlie.R...
ChicasLoca.18.09.10.Andreina...
ClaudiaMarie.18.09.07.Teen.D...
Babes.18.09.07.Misty.Stone.T...
WoodmanCastingX.15.12.05.Ley...
Babes.18.09.09.Gianna.Dior.B...
BrazzersExxtra.18.09.07.Vien...
WoodmanCastingX.15.07.26.Ann...
BadDaddyPOV.18.09.07.Sadie.H...

3D
Die.Biene.Maja.2.Die.Honigsp...
Avengers.Infinity.War.3D.201...
Avengers.Infinity.War.3D.201...
Rampage.Big.Meets.Bigger.3D....
Rampage.Big.Meets.Bigger.3D....
Rampage.Big.Meets.Bigger.3D....
Winter.Games.3D.2013.DUAL.CO...
Tomb.Raider.3D.2018.German.7...
Rampage.Big.Meets.Bigger.3D....
Rampage.Big.Meets.Bigger.3D....
Tomb.Raider.3D.2018.MULTi.CO...
Pacific.Rim.Uprising.3D.2018...
Ready.Player.One.3D.2018.Ger...
Rampage.-.Big.Meets.Bigger.2...
Ready.Player.One.2018.3D.HOU...

Old_Stuff
How.I.Met.Your.Mother.S02.Ge...
Akte.X.S01.German.DTS.DL.108...
Den.Himmel.gibts.echt.DL.108...
Vikings.S02.German.DL.1080p....
Be.Kind.Rewind.Abgedreht.200...
Be.Kind.Rewind.Abgedreht.200...
Dracula.The.Dark.Lord.2012.G...
21.2008.German.DL.1080p.BluR...
Achtung.fertig.WK.Swissgerma...
The.Ouija.Exorcism.2015.MULT...
Meine.liebe.Rabenmutter.germ...
Da.Vincis.Demons.S01.Complet...
Eragon.Das.Vermaechtnis.der....
Adele.und.das.Geheimnis.des....
Die.fabelhafte.Welt.der.Amel...

Filme
Hammer.of.the.Gods.2013.Germ...
The.Big.Bang.Theory.S11.Germ...
The.Big.Bang.Theory.S11.Germ...
Quiz.Show.1994.German.AC3D.7...
Vierzehn.Jahre.Sing-Sing.194...
Legends.of.Tomorrow.S03.Germ...
Draft.Day.2014.German.DL.108...
Better.Call.Saul.S04.German....
Better.Call.Saul.S04.German....
Hard.to.Fight.2004.German.AC...
Im.Land.der.Dinosaurier.2014...
Leon.der.Profi.1994.German.D...
Sie.leben.1988.Collectors.Ed...
Die.Maske.des.Fu-Manchu.1932...
Rapid.Fire.Uncut.1992.German...
Robin.Hood.2010.UNRATED.Germ...
Elementary.S06.GERMAN.DUBBED...
Timeless.S02.COMPLETE.German...
Timeless.S02.COMPLETE.German...
Timeless.S01.COMPLETE.German...
Timeless.S01.COMPLETE.German...
Fear.The.Walking.Dead.S04.Ge...
Fear.The.Walking.Dead.S04.Ge...
Modern.Family.S08.GERMAN.DUB...

 
 
I.Tonya.2017.German.AC3.DL.1080p.BluRay.x265-FuN
Jahr: 2017
Genre: Biografie, Komödie, Drama
Sprache: Deutsch AC3 | Englisch AC3
Laufzeit: 1h 59mn
Bitrate: 2 338 Kbps
Format: MKV
Größe: 1.95 GiB
Release:

Beschreibung:

Tonya Harding (Margot Robbie) ist unter ärmsten Bedinungen aufgewachsen, doch wurde sie von ihrer wenig liebevollen Mutter LaVona Golden (Allison Janney) schon früh auf eine Karriere im Eiskunstlaufen vorbereitet. Zwar hat es Tonya mit ihrem aggressiven Auftreten, ihren selbstgenähten Kostümen und ihrer unkoventionellen Technik nicht leicht, doch ihr Talent ist unbestreitbar, ist sie doch die einzige Frau, der im Rahmen eines Wettbewerbs ein dreifacher Axel gelingt. Als sie sich langsam dem Höhepunkt ihrer Karriere nähert, wird ihre Konkurrentin Nancy Kerrigan (Caitlin Carver) bei einem Angriff verletzt und muss aus den amerikanischen Meisterschaften ausscheiden. Wie sich jedoch herausstellen soll, steckt Hardings Ex-Mann Jeff Gillooly (Sebastian Stan) hinter dem Angriff, weswegen ihr der gerade gewonnene Titel aberkannt wird und ihre Karriere urplötzlich beendet ist…



Complete name                            : I.Tonya.x265.mkv
Format                                   : Matroska
Format version                           : Version 4 / Version 2
File size                                : 1.95 GiB
Duration                                 : 1h 59mn
Overall bit rate                         : 2 338 Kbps
Movie name                               : I.Tonya.2017.German.1080p.DL.DTSHD.BluRay.AVC.Remux-pmHD
Encoded date                             : UTC 2018-08-14T09:06:39Z
Writing application                      : HandBrake 1.0.7 2017040900
Writing library                          : Lavf57.7.2

Video
ID                                       : 1
Format                                   : HEVC
Format/Info                              : High Efficiency Video Coding
Format profile                           : Main@L4.0
Codec ID                                 : V_MPEGH/ISO/HEVC
Duration                                 : 1h 59mn
Bit rate                                 : 1 523 Kbps
Width                                    : 1 920 pixels
Height                                   : 804 pixels
Display aspect ratio                     : 2.40:1
Frame rate mode                          : Constant
Frame rate                               : 24.000 fps
Color space                              : YUV
Chroma subsampling                       : 4:2:0
Bit depth                                : 8 bits
Bits/(Pixel*Frame)                       : 0.041
Stream size                              : 1.27 GiB (65%)
Writing library                          : x265 2.1:[Windows][GCC 5.3.1][64 bit] 8bit
Encoding settings                        : wpp / ctu=64 / min-cu-size=8 / max-tu-size=32 / tu-intra-depth=1 / tu-inter-depth=1 / me=1 / subme=2 / merange=57 / no-rect / no-amp / max-merge=2 / temporal-mvp / no-early-skip / rskip / rdpenalty=0 / no-tskip / no-tskip-fast / no-strong-intra-smoothing / no-lossless / no-cu-lossless / no-constrained-intra / no-fast-intra / open-gop / no-temporal-layers / interlace=0 / keyint=240 / min-keyint=24 / scenecut=40 / rc-lookahead=20 / lookahead-slices=5 / bframes=4 / bframe-bias=0 / b-adapt=2 / ref=3 / limit-refs=3 / no-limit-modes / weightp / no-weightb / aq-mode=1 / qg-size=32 / aq-strength=1.00 / cbqpoffs=0 / crqpoffs=0 / rd=3 / psy-rd=2.00 / rdoq-level=0 / psy-rdoq=0.00 / log2-max-poc-lsb=8 / no-rd-refine / signhide / deblock=0:0 / no-sao / no-sao-non-deblock / b-pyramid / cutree / no-intra-refresh / rc=crf / crf=23.0 / qcomp=0.60 / qpmin=0 / qpmax=69 / qpstep=4 / ipratio=1.40 / pbratio=1.30
Default                                  : Yes
Forced                                   : No

Audio #1
ID                                       : 2
Format                                   : AC-3
Format/Info                              : Audio Coding 3
Mode extension                           : CM (complete main)
Format settings, Endianness              : Big
Codec ID                                 : A_AC3
Duration                                 : 1h 59mn
Bit rate mode                            : Constant
Bit rate                                 : 384 Kbps
Channel(s)                               : 6 channels
Channel positions                        : Front: L C R, Side: L R, LFE
Sampling rate                            : 48.0 KHz
Bit depth                                : 16 bits
Compression mode                         : Lossy
Delay relative to video                  : -5ms
Stream size                              : 329 MiB (16%)
Title                                    : Surround
Language                                 : German
Default                                  : Yes
Forced                                   : No

Audio #2
ID                                       : 3
Format                                   : AC-3
Format/Info                              : Audio Coding 3
Mode extension                           : CM (complete main)
Format settings, Endianness              : Big
Codec ID                                 : A_AC3
Duration                                 : 1h 59mn
Bit rate mode                            : Constant
Bit rate                                 : 384 Kbps
Channel(s)                               : 6 channels
Channel positions                        : Front: L C R, Side: L R, LFE
Sampling rate                            : 48.0 KHz
Bit depth                                : 16 bits
Compression mode                         : Lossy
Delay relative to video                  : -5ms
Stream size                              : 329 MiB (16%)
Title                                    : Surround
Language                                 : English
Default                                  : No
Forced                                   : No

Text #1
ID                                       : 4
Format                                   : ASS
Codec ID                                 : S_TEXT/ASS
Codec ID/Info                            : Advanced Sub Station Alpha
Compression mode                         : Lossless
Language                                 : German
Default                                  : Yes
Forced                                   : Yes

Text #2
ID                                       : 5
Format                                   : PGS
Codec ID                                 : S_HDMV/PGS
Codec ID/Info                            : The same subtitle format used on BDs/HD-DVDs
Language                                 : German
Default                                  : No
Forced                                   : No

Text #3
ID                                       : 6
Format                                   : VobSub
Codec ID                                 : S_VOBSUB
Codec ID/Info                            : The same subtitle format used on DVDs
Language                                 : German
Default                                  : No
Forced                                   : No

Text #4
ID                                       : 7
Format                                   : PGS
Codec ID                                 : S_HDMV/PGS
Codec ID/Info                            : The same subtitle format used on BDs/HD-DVDs
Language                                 : German
Default                                  : No
Forced                                   : No

Text #5
ID                                       : 8
Format                                   : VobSub
Codec ID                                 : S_VOBSUB
Codec ID/Info                            : The same subtitle format used on DVDs
Language                                 : German
Default                                  : No
Forced                                   : No


Download:
Share Online Share OnlineShare OnlineShare Online
 

Kommentare