DNS SERVER AENDERNum der staatlichen Zensur zu umgehen. Sollten wir von eurem Provider geseprrt werden, nutzt den TOR BROWSER oder ändert euren DNS SERVER.

Filmwünsche können bei uns im Forum abgegeben werden

Wir Speichern Nicht




 
 
 
Top Releases
The.Seagull.Eine.unerhoerte....
Racer.and.the.Jailbird.2017....
Jurassic.World.2.Das.gefalle...
3.Tage.in.Quiberon.2018.GERM...
3.Tage.in.Quiberon.2018.GERM...
Norman.2016.German.AC3D.DL.1...
Wo.steckt.Sidney.Hall.2017.G...
Chappie.2015.German.AC3.DL.1...
Solo.A.Star.Wars.Story.2018....
Der.Buchladen.der.Florance.G...

Cinedubs
Hotel.Transsilvanien.3.Ein.M...
Hotel.Transsilvanien.3.Ein.M...
The.Seagull.Eine.unerhoerte....
The.Seagull.Eine.unerhoerte....
First.Reformed.2017.German.D...
Mamma.Mia.2.Here.We.Go.Again...
First.Reformed.German.DL.AC3...
The.First.Purge.2018.German....
No.Way.Out.Gegen.die.Flammen...
First.Reformed.German.DL.AC3...

Neuerscheinungen 2017-18
Mom.and.Dad.2017.MULTI.COMPL...
The.Asian.Connection.2016.CO...
Mom.and.Dad.2017.GERMAN.720p...
Solo.A.Star.Wars.Story.2018....
3.Tage.in.Quiberon.2018.GERM...
The.Asian.Connection.2016.GE...
The.Asian.Connection.2016.GE...
Sharknado.6.The.Last.One.201...
Sharknado.6.The.Last.One.201...
Mom.and.Dad.2017.German.AC3....

XXX
PropertySex.18.09.07.Vina.Sk...
PornstarPlatinum.18.09.09.Av...
PublicPickUps.18.09.10.Lucia...
PremiumBukkake.18.09.07.Cami...
Pure-BBW.18.07.26.Anal.Sex.I...
RKPrime.18.09.10.Jynx.Maze.A...
RealGirlsGoneBad.18.09.01.Se...
PremiumBukkake.18.09.05.Cami...
PornMegaLoad.18.09.09.Rachel...
PornstarPlatinum.18.09.10.Br...
Pure-BBW.18.08.02.Mermaid.Bb...
Pure-BBW.18.09.06.Tattooed.S...
Pure-BBW.18.08.09.Redhead.Ss...
Pure-BBW.18.08.30.Sensual.Ne...
PureMature.18.09.07.Isabelle...
Pure-BBW.18.08.23.Oiled.Up.A...
Pure-BBW.18.08.16.Oiling.Up....
Private.Tropical.29.Sluts.An...
RealWifeStories.18.09.09.Lel...
PremiumBukkake.18.08.24.Jime...

3D
Sharknado.6.The.Last.One.3D....
Solo.A.Star.Wars.Story.3D.20...
Solo.A.Star.Wars.Story.3D.20...
Die.Biene.Maja.2.Die.Honigsp...
Avengers.Infinity.War.3D.201...
Avengers.Infinity.War.3D.201...
Rampage.Big.Meets.Bigger.3D....
Rampage.Big.Meets.Bigger.3D....
Rampage.Big.Meets.Bigger.3D....
Winter.Games.3D.2013.DUAL.CO...
Tomb.Raider.3D.2018.German.7...
Rampage.Big.Meets.Bigger.3D....
Rampage.Big.Meets.Bigger.3D....
Tomb.Raider.3D.2018.MULTi.CO...
Pacific.Rim.Uprising.3D.2018...

Old_Stuff
Schimanski.-.Duisburg.Ruhror...
Akte.X.S02.German.DTS.DL.108...
How.I.Met.Your.Mother.S02.Ge...
Akte.X.S01.German.DTS.DL.108...
Den.Himmel.gibts.echt.DL.108...
Vikings.S02.German.DL.1080p....
Be.Kind.Rewind.Abgedreht.200...
Be.Kind.Rewind.Abgedreht.200...
Dracula.The.Dark.Lord.2012.G...
21.2008.German.DL.1080p.BluR...
Achtung.fertig.WK.Swissgerma...
The.Ouija.Exorcism.2015.MULT...
Meine.liebe.Rabenmutter.germ...
Da.Vincis.Demons.S01.Complet...
Eragon.Das.Vermaechtnis.der....

Filme
Tanz.der.Teufel.1981.UNCUT.R...
Tao.Jie.Ein.einfaches.Leben....
Taped.2012.GERMAN.1080p.HDTV...
Arrow.S06.GERMAN.DL.1080p.HD...
Arrow.S06.GERMAN.DL.720p.HDT...
Taras.Bulba.1962.GERMAN.AC3D...
Better.Call.Saul.S04.German....
Die.Simpsons.S29.GERMAN.DUBB...
Power.2014.S05.German.DL.DUB...
Power.2014.S05.German.DL.DUB...
The.Deuce.S02.GERMAN.DL.1080...
The.Deuce.S02.GERMAN.DL.720p...
Taste.the.Waste.2010.German....
Taste.of.Money.Die.Macht.der...
Tasmanian.Devils.Die.Jagd.ha...
Legends.of.Tomorrow.S03.Germ...
Legends.of.Tomorrow.S03.GERM...
Pater.Brown.-.Er.kanns.nicht...
Jumanji.4K.Remastered.1995.G...
X.Men.Der.letzte.Widerstand....
No.Good.Deed.2002.GERMAN.DL....
Scum.-.Abschaum.1979.German....
The.Big.Bang.Theory.S11.Germ...
The.Big.Bang.Theory.S11.Germ...

 
 
Oblivion.Open.Matte.2013.German.AC3D.DL.1080p.WEB-DL.x265-FuN
Jahr: 2013
Genre: Abenteuer | Action | Mystery
Sprache: Deutsch AC3 | Englisch AC3
Laufzeit: 2h 4mn
Bitrate: 2 349 Kbps
Format: MKV
Größe: 2.05 GiB
Release:

Beschreibung:

In naher Zukunft ist unsere Welt nach einem Krieg mit außerirdischen Wesen nahezu komplett zerstört. Die Menschheit muss seitdem über den Wolken leben, wo sie sich vor den furchterregenden Aliens, die die letzten Trümmer der Erde belauern, in Sicherheit wähnt. Der Spezialtechniker Jack (Tom Cruise) ist als einer der wenigen Menschen auf der Erde stationiert. Doch seine Jahre andauernde Mission, lebenswichtige Ressourcen zu sammeln, um der Menschheit einen Neuanfang zu ermöglichen, neigt sich dem Ende zu. Er wird wieder in das Wolkenreich der Menschen zurückbeordert. Kurz vor Abflug entdeckt er auf einem Routine-Flug ein abgestürztes Raumschiff, neben dem er eine Überlebende findet. Als Jack Meldung macht, bekommt er den Befehl erteilt, sich nicht weiter um den Vorfall zu kümmern, doch Jack widersetzt sich dieser Anweisung und will die junge Frau retten. Das bringt den Stein ins Rollen und macht Jack zum Gejagten. All diese mysteriösen Ereignisse bringen ihn auf eine neue, ungeahnte Fährte, an deren Ende dunkle Geheimnisse aufgedeckt werden.




Format                                   : Matroska
Format version                           : Version 4 / Version 2
File size                                : 2.05 GiB
Duration                                 : 2h 4mn
Overall bit rate                         : 2 349 Kbps
Encoded date                             : UTC 2018-08-17 12:20:54
Writing application                      : mkvmerge v10.0.0 ('To Drown In You') 64bit
Writing library                          : libebml v1.3.4 + libmatroska v1.4.5
DURATION                                 : 01:57:36.280000000
NUMBER_OF_FRAMES                         : 1026
NUMBER_OF_BYTES                          : 2949838
_STATISTICS_WRITING_APP                  : mkvmerge v10.0.0 ('To Drown In You') 64bit
_STATISTICS_WRITING_DATE_UTC             : 2018-08-17 12:20:54
_STATISTICS_TAGS                         : BPS DURATION NUMBER_OF_FRAMES NUMBER_OF_BYTES

Video
ID                                       : 1
Format                                   : HEVC
Format/Info                              : High Efficiency Video Coding
Format profile                           : Main@L4.0
Codec ID                                 : V_MPEGH/ISO/HEVC
Duration                                 : 2h 4mn
Bit rate                                 : 1 534 Kbps
Width                                    : 1 920 pixels
Height                                   : 1 080 pixels
Display aspect ratio                     : 16:9
Frame rate mode                          : Constant
Frame rate                               : 23.976 fps
Color space                              : YUV
Chroma subsampling                       : 4:2:0
Bit depth                                : 8 bits
Bits/(Pixel*Frame)                       : 0.031
Stream size                              : 1.34 GiB (65%)
Writing library                          : x265 2.1:[Windows][GCC 5.3.1][64 bit] 8bit
Encoding settings                        : wpp / ctu=64 / min-cu-size=8 / max-tu-size=32 / tu-intra-depth=1 / tu-inter-depth=1 / me=1 / subme=2 / merange=57 / no-rect / no-amp / max-merge=2 / temporal-mvp / no-early-skip / rskip / rdpenalty=0 / no-tskip / no-tskip-fast / no-strong-intra-smoothing / no-lossless / no-cu-lossless / no-constrained-intra / no-fast-intra / open-gop / no-temporal-layers / interlace=0 / keyint=240 / min-keyint=24 / scenecut=40 / rc-lookahead=20 / lookahead-slices=6 / bframes=4 / bframe-bias=0 / b-adapt=2 / ref=3 / limit-refs=3 / no-limit-modes / weightp / no-weightb / aq-mode=1 / qg-size=32 / aq-strength=1.00 / cbqpoffs=0 / crqpoffs=0 / rd=3 / psy-rd=2.00 / rdoq-level=0 / psy-rdoq=0.00 / log2-max-poc-lsb=8 / no-rd-refine / signhide / deblock=0:0 / no-sao / no-sao-non-deblock / b-pyramid / cutree / no-intra-refresh / rc=crf / crf=23.0 / qcomp=0.60 / qpmin=0 / qpmax=69 / qpstep=4 / ipratio=1.40 / pbratio=1.30
Default                                  : Yes
Forced                                   : No
DURATION                                 : 02:04:36.928000000
NUMBER_OF_FRAMES                         : 179267
NUMBER_OF_BYTES                          : 1471038450
_STATISTICS_WRITING_APP                  : mkvmerge v10.0.0 ('To Drown In You') 64bit
_STATISTICS_WRITING_DATE_UTC             : 2018-08-17 12:20:54
_STATISTICS_TAGS                         : BPS DURATION NUMBER_OF_FRAMES NUMBER_OF_BYTES

Audio #1
ID                                       : 2
Format                                   : AC-3
Format/Info                              : Audio Coding 3
Mode extension                           : CM (complete main)
Format settings, Endianness              : Big
Codec ID                                 : A_AC3
Duration                                 : 2h 4mn
Bit rate mode                            : Constant
Bit rate                                 : 384 Kbps
Channel(s)                               : 6 channels
Channel positions                        : Front: L C R, Side: L R, LFE
Sampling rate                            : 48.0 KHz
Bit depth                                : 16 bits
Compression mode                         : Lossy
Delay relative to video                  : -5ms
Stream size                              : 343 MiB (16%)
Title                                    : Surround
Language                                 : German
Default                                  : Yes
Forced                                   : No
DURATION                                 : 02:04:42.208000000
NUMBER_OF_FRAMES                         : 233819
NUMBER_OF_BYTES                          : 359145984
_STATISTICS_WRITING_APP                  : mkvmerge v10.0.0 ('To Drown In You') 64bit
_STATISTICS_WRITING_DATE_UTC             : 2018-08-17 12:20:54
_STATISTICS_TAGS                         : BPS DURATION NUMBER_OF_FRAMES NUMBER_OF_BYTES

Audio #2
ID                                       : 3
Format                                   : AC-3
Format/Info                              : Audio Coding 3
Mode extension                           : CM (complete main)
Format settings, Endianness              : Big
Codec ID                                 : A_AC3
Duration                                 : 2h 4mn
Bit rate mode                            : Constant
Bit rate                                 : 384 Kbps
Channel(s)                               : 6 channels
Channel positions                        : Front: L C R, Side: L R, LFE
Sampling rate                            : 48.0 KHz
Bit depth                                : 16 bits
Compression mode                         : Lossy
Delay relative to video                  : -5ms
Stream size                              : 343 MiB (16%)
Title                                    : Surround
Language                                 : English
Default                                  : No
Forced                                   : No

Text #1
ID                                       : 4
Format                                   : VobSub
Muxing mode                              : zlib
Codec ID                                 : S_VOBSUB
Codec ID/Info                            : The same subtitle format used on DVDs
Title                                    : German Forced
Language                                 : German
Default                                  : Yes
Forced                                   : No

Text #2
ID                                       : 5
Format                                   : VobSub
Muxing mode                              : zlib
Codec ID                                 : S_VOBSUB
Codec ID/Info                            : The same subtitle format used on DVDs
Title                                    : German
Language                                 : German
Default                                  : No
Forced                                   : No

Text #3
ID                                       : 6
Format                                   : VobSub
Muxing mode                              : zlib
Codec ID                                 : S_VOBSUB
Codec ID/Info                            : The same subtitle format used on DVDs
Title                                    : Englisch
Language                                 : English
Default                                  : No
Forced                                   : No



Download:
Share Online Share OnlineShare OnlineShare Online
 

Kommentare