Filecrypt zeigt vereinzelt Files als "n/a". Die Downloads sind trotzdem komplett.

DNS SERVER AENDERNum der staatlichen Zensur zu umgehen. Sollten wir von eurem Provider geseprrt werden, nutzt den TOR BROWSER oder ändert euren DNS SERVER.

Filmwünsche können bei uns im Forum abgegeben werden

Wir Speichern Nicht




 
 
 
Top Releases
Oceans.8.2018.German.AC3.DL....
Constantine.City.of.Demons.2...
Meg.2018.German.Dubbed.RETAi...
Meg.2018.German.Dubbed.RETAi...
Die.Unglaublichen.2.2018.Ger...
Logan.Noir.Edition.2017.MULT...
Hotel.Artemis.2018.German.AC...
Ant-Man.2015.German.AC3.DL.1...
In.den.Gaengen.2018.German.A...
Oceans.8.2018.MULTi.COMPLETE...

Cinedubs
10x10.2018.German.AC3D.DL.10...
Predator.Upgrade.German.DL.A...
Predator.Upgrade.German.DL.A...
10×10.2018.German.AC3D.DL.1...
10×10.2018.German.AC3D.DL.7...
Sicario.2.German.DL.AC3.Dubb...
Sicario.2.German.DL.AC3.Dubb...
Hotel.Artemis.German.DL.AC3....
Mission.Impossible.Fallout.2...
Mission.Impossible.Fallout.2...

Neuerscheinungen 2017-18
Ein.gewisser.Herr.Gran.1933....
Vampire.gegen.Herakles.The.V...
Steig.Nicht.Aus.2018.German....
Der.Falke.und.der.Schneemann...
Gate.Die.Unterirdischen.1987...
Hostile.2017.DUAL.COMPLETE.B...
Stoppt.die.Todesfahrt.der.U-...
Zorro.1975.MULTi.COMPLETE.BL...
Meg.The.Meg.2018.COMPLETE.UH...
Skin.Creepers.2018.GERMAN.CO...

XXX
FoxxedUp.18.10.23.Eden.Sin.C...
DogHouseDigital.18.10.28.Cha...
FakeTaxi.18.10.31.Rhiannon.R...
FTVGirls.18.10.30.Mazzy.Tall...
EuroTeenErotica.18.10.29.Min...
EvilAngel.Cum.Filled.Schoolg...
ATKGirlfriends.18.10.31.Kenz...
FootsieBabes.18.10.28.Luna.C...
DevilsFilm.18.10.31.Alexandr...
EvilAngel.Hookup.Hotshot.Sex...
EternalDesire.18.10.31.Alice...
DorcelClub.18.10.29.Cherry.K...
Fitting-Room.18.10.29.Adrian...
BustyArianna.18.09.21.Boob.M...
DevilsFilm.18.10.28.Claudia....
FakeTaxi.18.10.28.Ava.Koxxx....
BustyArianna.18.09.27.Beach....
FTVMilfs.18.10.30.Christy.Lo...
BustyArianna.18.09.15.Ariann...
DontBreakMe.18.10.31.Selena....

3D
Ant-Man.And.The.Wasp.3D.2018...
Ant.Man.and.the.Wasp.3D.2018...
Die.Unglaublichen.2.3D.2018....
Die.Unglaublichen.2.2018.3D....
Die.Unglaublichen.2.2018.3D....
Sharknado.6.The.Last.One.3D....
Deep.Kleine.Helden.der.Tiefs...
Deep.3D.2017.MULTI.COMPLETE....
Detective.Dee.und.die.Legend...
Detective.Dee.und.die.Legend...
Skyscraper.3D.German.DL.AC3....
Ant-Man.and.the.Wasp.2018.3D...
Jurassic.World.Das.gefallene...
Jurassic.World.Das.gefallene...
Best.of.3D.vol.10.-.12.GERMA...

Old_Stuff
Detective.Dee.und.das.Geheim...
Detective.Dee.Und.Der.Fluch....
Ghost.Rider.Spirit.of.Vengea...
Species.IV.Das.Erwachen.2007...
Species.IV.Das.Erwachen.2007...
Hotel.Transsilvanien.2012.Ge...
The.Dead.2010.German.DL.1080...
The.Dead.2.India.2013.German...
Britney.Spears.Live.The.Femm...
Buffy.The.Vampire.Slayer.199...
IMAX.Ride.Around.The.World.2...
Schimanski.-.Duisburg.Ruhror...
Akte.X.S02.German.DTS.DL.108...
How.I.Met.Your.Mother.S02.Ge...
Akte.X.S01.German.DTS.DL.108...

Filme
Oceans.8.2018.German.DL.2160...
The.Walking.Dead.S09.UNCUT.G...
The.Walking.Dead.S09.UNCUT.G...
Modern.Family.S09.GERMAN.DUB...
Legends.of.Tomorrow.S03.GERM...
Xanadu.1980.German.AC3D.DL.7...
Evet.ich.will.2008.German.DT...
Oceans.8.2018.German.DL.2160...
Spill.Toedlicher.Virus.1996....
Cluny.Brown.auf.Freiersfuess...
Exit.Lauf.um.dein.Leben.2006...
Weiblich.ledig.jung.sucht.ak...
Viva.Maria.1965.German.1080p...
Die.Unglaublichen.2.2018.Ger...
Die.Unglaublichen.2.2018.Ger...
ACDC.LIVE.4.Disc.Collectors....
Mars.S02.GERMAN.DL.1080p.HDT...
The.Originals.S05.GERMAN.720...
Supernatural.S13.DL.DD51.Dub...
Supernatural.S13.DL.DD51.Dub...
Modern.Family.S09.GERMAN.DUB...
Power.2014.S05.German.DL.DUB...
Power.2014.S05.German.DL.DUB...
Ray.Donovan.S06.GERMAN.DUBBE...

 
 
Rampage.Black.Edition.Uncut.2009.German.DL.AC3.1080p.BluRay.x265-FuN
Jahr: 2009
Genre: Action
Sprache: Deutsch AC3 | Englisch AC3
Laufzeit: 1h 24mn
Bitrate: 3 427 Kbps
Format: MKV
Größe: 2.03 GiB
Release:

Beschreibung:

Bill Williamson, ein junger Mann aus einer amerikanischen Kleinstadt, hat die Schnauze voll von seinem Leben. Er wohnt bei seinen Eltern, ist frustriert von seinem Job, seinen Mitmenschen und der ganzen Gesellschaft. In den Kellerräumen seines Wohnsitzes konstruiert er einen Racheplan, schmiedet sich eine schussfeste Kevlarrüstung und zieht schwer bewaffnet in seinen Krieg. Für Bill ist die Zeit gekommen abzurechnen und das Ausmaß der Verwüstung ist gewaltig.



Complete name                            : FunXD.mkv
Format                                   : Matroska
Format version                           : Version 4 / Version 2
File size                                : 2.03 GiB
Duration                                 : 1h 24mn
Overall bit rate                         : 3 427 Kbps
Encoded date                             : UTC 2018-08-17 14:42:56
Writing application                      : mkvmerge v25.0.0 ('Prog Noir') 64-bit
Writing library                          : libebml v1.3.6 + libmatroska v1.4.9
DURATION                                 : 01:24:39.584000000
NUMBER_OF_FRAMES                         : 158737
NUMBER_OF_BYTES                          : 243820032
_STATISTICS_WRITING_APP                  : mkvmerge v25.0.0 ('Prog Noir') 64-bit
_STATISTICS_WRITING_DATE_UTC             : 2018-08-17 14:42:56
_STATISTICS_TAGS                         : BPS DURATION NUMBER_OF_FRAMES NUMBER_OF_BYTES

Video
ID                                       : 1
Format                                   : HEVC
Format/Info                              : High Efficiency Video Coding
Format profile                           : Main@L4.0
Codec ID                                 : V_MPEGH/ISO/HEVC
Duration                                 : 1h 24mn
Bit rate                                 : 2 590 Kbps
Width                                    : 1 918 pixels
Height                                   : 800 pixels
Display aspect ratio                     : 2.40:1
Frame rate mode                          : Constant
Frame rate                               : 23.976 fps
Color space                              : YUV
Chroma subsampling                       : 4:2:0
Bit depth                                : 8 bits
Bits/(Pixel*Frame)                       : 0.070
Stream size                              : 1.53 GiB (76%)
Writing library                          : x265 2.6:[Windows][GCC 7.3.0][64 bit] 8bit+10bit+12bit
Encoding settings                        : cpuid=1050111 / frame-threads=2 / numa-pools=4 / wpp / no-pmode / no-pme / no-psnr / no-ssim / log-level=2 / input-csp=1 / input-res=1918x800 / interlace=0 / total-frames=0 / level-idc=0 / high-tier=1 / uhd-bd=0 / ref=3 / no-allow-non-conformance / no-repeat-headers / annexb / no-aud / no-hrd / info / hash=0 / no-temporal-layers / open-gop / min-keyint=24 / keyint=240 / bframes=4 / b-adapt=2 / b-pyramid / bframe-bias=0 / rc-lookahead=20 / lookahead-slices=5 / scenecut=40 / no-intra-refresh / ctu=64 / min-cu-size=8 / no-rect / no-amp / max-tu-size=32 / tu-inter-depth=1 / tu-intra-depth=1 / limit-tu=0 / rdoq-level=0 / dynamic-rd=0.00 / no-ssim-rd / signhide / no-tskip / nr-intra=0 / nr-inter=0 / no-constrained-intra / no-strong-intra-smoothing / max-merge=2 / limit-refs=3 / no-limit-modes / me=1 / subme=2 / merange=57 / temporal-mvp / weightp / no-weightb / no-analyze-src-pics / deblock=0:0 / no-sao / no-sao-non-deblock / rd=3 / no-early-skip / rskip / no-fast-intra / no-tskip-fast / no-cu-lossless / no-b-intra / no-splitrd-skip / rdpenalty=0 / psy-rd=2.00 / psy-rdoq=0.00 / no-rd-refine / analysis-reuse-mode=0 / no-lossless / cbqpoffs=0 / crqpoffs=0 / rc=crf / crf=23.0 / qcomp=0.60 / qpstep=4 / stats-write=0 / stats-read=0 / ipratio=1.40 / pbratio=1.30 / aq-mode=1 / aq-strength=1.00 / cutree / zone-count=0 / no-strict-cbr / qg-size=32 / no-rc-grain / qpmax=69 / qpmin=0 / no-const-vbv / sar=1 / overscan=0 / videoformat=5 / range=0 / colorprim=1 / transfer=1 / colormatrix=1 / chromaloc=0 / display-window=0 / max-cll=0,0 / min-luma=0 / max-luma=255 / log2-max-poc-lsb=8 / vui-timing-info / vui-hrd-info / slices=1 / no-opt-qp-pps / no-opt-ref-list-length-pps / no-multi-pass-opt-rps / scenecut-bias=0.05 / no-opt-cu-delta-qp / no-aq-motion / no-hdr / no-hdr-opt / no-dhdr10-opt / analysis-reuse-level=5 / scale-factor=0 / refine-intra=0 / refine-inter=0 / refine-mv=0 / no-limit-sao / ctu-info=0 / no-lowpass-dct / refine-mv-type=0 / copy-pic=1
Default                                  : Yes
Forced                                   : No
DURATION                                 : 01:24:39.533000000
NUMBER_OF_FRAMES                         : 121787
NUMBER_OF_BYTES                          : 1686779137
_STATISTICS_WRITING_APP                  : mkvmerge v25.0.0 ('Prog Noir') 64-bit
_STATISTICS_WRITING_DATE_UTC             : 2018-08-17 14:42:56
_STATISTICS_TAGS                         : BPS DURATION NUMBER_OF_FRAMES NUMBER_OF_BYTES

Audio #1
ID                                       : 2
Format                                   : AC-3
Format/Info                              : Audio Coding 3
Mode extension                           : CM (complete main)
Format settings, Endianness              : Big
Codec ID                                 : A_AC3
Duration                                 : 1h 24mn
Bit rate mode                            : Constant
Bit rate                                 : 384 Kbps
Channel(s)                               : 6 channels
Channel positions                        : Front: L C R, Side: L R, LFE
Sampling rate                            : 48.0 KHz
Bit depth                                : 16 bits
Compression mode                         : Lossy
Stream size                              : 233 MiB (11%)
Title                                    : Surround
Language                                 : German
Default                                  : Yes
Forced                                   : No
DURATION                                 : 01:24:39.552000000
NUMBER_OF_FRAMES                         : 158736
NUMBER_OF_BYTES                          : 243818496
_STATISTICS_WRITING_APP                  : mkvmerge v25.0.0 ('Prog Noir') 64-bit
_STATISTICS_WRITING_DATE_UTC             : 2018-08-17 14:42:56
_STATISTICS_TAGS                         : BPS DURATION NUMBER_OF_FRAMES NUMBER_OF_BYTES

Audio #2
ID                                       : 3
Format                                   : AC-3
Format/Info                              : Audio Coding 3
Mode extension                           : CM (complete main)
Format settings, Endianness              : Big
Codec ID                                 : A_AC3
Duration                                 : 1h 24mn
Bit rate mode                            : Constant
Bit rate                                 : 384 Kbps
Channel(s)                               : 6 channels
Channel positions                        : Front: L C R, Side: L R, LFE
Sampling rate                            : 48.0 KHz
Bit depth                                : 16 bits
Compression mode                         : Lossy
Delay relative to video                  : -5ms
Stream size                              : 233 MiB (11%)
Title                                    : Surround
Language                                 : English
Default                                  : No
Forced                                   : No


Download:
Share Online Share OnlineShare OnlineShare Online
 

Kommentare