Filecrypt zeigt vereinzelt Files als "n/a". Die Downloads sind trotzdem komplett.

DNS SERVER AENDERNum der staatlichen Zensur zu umgehen. Sollten wir von eurem Provider geseprrt werden, nutzt den TOR BROWSER oder ändert euren DNS SERVER.

Filmwünsche können bei uns im Forum abgegeben werden

Wir Speichern Nicht




 
 
 
Top Releases
Feinde.Hostiles.2017.DUAL.CO...
The.Miracle.Season.Ihr.groes...
The.Miracle.Season.Ihr.groes...
The.Miracle.Season.Ihr.groes...
Le.Jeu.Nichts.zu.verbergen.2...
Le.Jeu.Nichts.zu.verbergen.2...
Cam.2018.German.DL.1080p.WEB...
Cam.2018.German.DL.720p.WEB....
Teen.Titans.Go.To.the.Movies...
The.Ballad.of.Buster.Scruggs...

Cinedubs
The.Happytime.Murders.Kein.S...
The.Happytime.Murders.Kein.S...
Peppermint.Angel.of.Vengeanc...
Peppermint.Angel.of.Vengeanc...
The.Nun.German.AC3D.DL.1080p...
Christopher.Robin.German.DL....
Christopher.Robin.German.DL....
A.Star.Is.Born.German.DL.AC3...
A.Star.Is.Born.German.DL.AC3...
Mission.Impossible.Fallout.G...

Neuerscheinungen 2017-18
Cliffhanger.Nur.die.Starken....
Cliffhanger.Nur.die.Starken....
Devils.Gate.Pforte.zur.Hoell...
Devils.Gate.Pforte.zur.Hoell...
Beautiful.People.2014.German...
Immortal.Wars.Nur.der.Staerk...
Beautiful.People.2014.DUAL.C...
Devils.Gate.Pforte.zur.Hoell...
Night.Of.The.Demons.1988.DUA...
Africa.Addio.1966.DUAL.COMPL...

XXX
PlumperPass.18.10.29.Veruca....
PornstarPlatinum.18.10.31.Al...
PremiumBukkake.18.10.17.Rebe...
PornMegaLoad.18.10.30.Kacey....
PornMegaLoad.18.10.27.April....
PornMegaLoad.18.10.30.Michel...
PremiumBukkake.18.10.18.Sher...
RKPrime.18.10.29.Aryana.Adin...
NHLPCentral.18.05.28.Beth.Be...
Private.18.10.30.Carly.Rae.G...
PrivateSociety.18.10.29.Just...
NHLPCentral.18.05.21.Natalia...
NHLPCentral.18.06.04.Natalia...
NHLPCentral.18.05.17.Sophia....
Naughty.Threesomes.12.XXX.72...
Naughty.Threesomes.12.XXX.10...
NHLPCentral.18.05.03.French....
NuruMassage.18.10.31.Isabell...
MyFriendsHotMom.18.10.31.Bri...
MetArt.18.10.28.Lola.Chic.Se...

3D
Die.Unglaublichen.2.2018.3D....
Skyscraper.3D.2018.MULTi.COM...
Ant-Man.And.The.Wasp.3D.2018...
Ant.Man.and.the.Wasp.3D.2018...
Die.Unglaublichen.2.3D.2018....
Die.Unglaublichen.2.2018.3D....
Die.Unglaublichen.2.2018.3D....
Sharknado.6.The.Last.One.3D....
Deep.Kleine.Helden.der.Tiefs...
Deep.3D.2017.MULTI.COMPLETE....
Detective.Dee.und.die.Legend...
Detective.Dee.und.die.Legend...
Skyscraper.3D.German.DL.AC3....
Ant-Man.and.the.Wasp.2018.3D...
Jurassic.World.Das.gefallene...

Old_Stuff
Dunkirk.1958.COMPLETE.BLURAY...
Das.Wunder.von.Manhattan.199...
The.Amazing.Spiderman.2.Rise...
Rise.of.the.Predator.2014.Ge...
Detective.Dee.und.das.Geheim...
Detective.Dee.Und.Der.Fluch....
Ghost.Rider.Spirit.of.Vengea...
Species.IV.Das.Erwachen.2007...
Species.IV.Das.Erwachen.2007...
Hotel.Transsilvanien.2012.Ge...
The.Dead.2010.German.DL.1080...
The.Dead.2.India.2013.German...
Britney.Spears.Live.The.Femm...
Buffy.The.Vampire.Slayer.199...
IMAX.Ride.Around.The.World.2...

Filme
Arrow.S06.GERMAN.DL.1080p.HD...
Arrow.S06.GERMAN.DL.720p.HDT...
Black.Lightning.S02.GERMAN.D...
Black.Lightning.S02.GERMAN.D...
Selfless.2015.German.DL.1080...
Full.Speed.2016.German.1080p...
Plan.B.Scheiss.auf.Plan.A.20...
Unter.deutschen.Betten.2017....
Nevada.Smith.1966.German.108...
Herr.Bello.2007.German.1080p...
Narcos.Mexico.S01.COMPLETE.G...
Chennai.Express.2013.German....
Querelle.Ein.Pakt.mit.dem.Te...
Die.Fuersten.der.Dunkelheit....
Blindspot.S03.German.DL.DUBB...
Blindspot.S03.German.DL.DUBB...
Der.Baum.der.Helden.2010.Ger...
Narcos.Mexico.S01.COMPLETE.G...
The.Walking.Dead.S09.GERMAN....
The.Walking.Dead.S09.GERMAN....
Gar.kein.Sex.mehr.1988.Germa...
Cherry.2000.1987.German.DL.1...
Treck.nach.Missouri.1988.Ger...
Tremors.4.Wie.alles.begann.2...

 
 
Von.Ryans.Express.1965.German.AC3.DL.1080p.BluRay.x265-FuN
Jahr: 1965
Genre: Action, Krieg
Sprache: Deutsch AC3 | Englisch AC3
Laufzeit: 1h 56mn
Bitrate: 3 931 Kbps
Format: MKV
Größe: 3.21 GiB
Release:

Beschreibung:

Italien 1943: Es gelingt den Alliierten, die Nazis in Richtung Deutschland zurückzudrängen. Während eines Einsatzes wird der US-Fliegeroffizier Col. Joseph Ryan abgeschossen und kommt in ein englisch-amerikanisches Gefangenenlager. Um das Lagerleben erträglicher zu machen, arrangiert er sich mit den Deutschen und bekommt schnell den Spitznamen „Von Ryan“ verliehen. Fluchtpläne scheinen ihn nicht zu interessieren. Doch plötzlich lässt er die Maske fallen: Er übernimmt das Kommando des britischen Offiziers und organisiert die spektakulärste Massenflucht der Kriegsfilm-Geschichte. Gemeinsam mit den anderen Gefangenen kapert er einen Zug, mit dem die Männer von Italien bis zur Schweizer Grenze fliehen. Gnadenlos verfolgt von den Nazis, kämpfen die Männer um ihr Leben und ihren Weg in die Freiheit – bis zur letzten Sekunde.



Complete name                            : Von.Ryans.Express.x265.mkv
Format                                   : Matroska
Format version                           : Version 4 / Version 2
File size                                : 3.21 GiB
Duration                                 : 1h 56mn
Overall bit rate                         : 3 931 Kbps
Encoded date                             : UTC 2018-08-18T07:05:56Z
Writing application                      : mkvmerge v10.0.0 ('To Drown In You') 64bit
Writing library                          : Lavf57.7.2
DURATION                                 : 01:55:21.488000000
NUMBER_OF_FRAMES                         : 891
NUMBER_OF_BYTES                          : 2379956
_STATISTICS_WRITING_APP                  : mkvmerge v10.0.0 ('To Drown In You') 64bit
_STATISTICS_WRITING_DATE_UTC             : 2018-08-18 14:40:11
_STATISTICS_TAGS                         : BPS DURATION NUMBER_OF_FRAMES NUMBER_OF_BYTES

Video
ID                                       : 1
Format                                   : HEVC
Format/Info                              : High Efficiency Video Coding
Format profile                           : Main@L4.0
Codec ID                                 : V_MPEGH/ISO/HEVC
Duration                                 : 1h 56mn
Bit rate                                 : 3 085 Kbps
Width                                    : 1 920 pixels
Height                                   : 812 pixels
Display aspect ratio                     : 2.35:1
Frame rate mode                          : Constant
Frame rate                               : 23.976 fps
Color space                              : YUV
Chroma subsampling                       : 4:2:0
Bit depth                                : 8 bits
Bits/(Pixel*Frame)                       : 0.083
Stream size                              : 2.52 GiB (78%)
Writing library                          : x265 2.1:[Windows][GCC 5.3.1][64 bit] 8bit
Encoding settings                        : wpp / ctu=64 / min-cu-size=8 / max-tu-size=32 / tu-intra-depth=1 / tu-inter-depth=1 / me=1 / subme=2 / merange=57 / no-rect / no-amp / max-merge=2 / temporal-mvp / no-early-skip / rskip / rdpenalty=0 / no-tskip / no-tskip-fast / no-strong-intra-smoothing / no-lossless / no-cu-lossless / no-constrained-intra / no-fast-intra / open-gop / no-temporal-layers / interlace=0 / keyint=240 / min-keyint=24 / scenecut=40 / rc-lookahead=20 / lookahead-slices=5 / bframes=4 / bframe-bias=0 / b-adapt=2 / ref=3 / limit-refs=3 / no-limit-modes / weightp / no-weightb / aq-mode=1 / qg-size=32 / aq-strength=1.00 / cbqpoffs=0 / crqpoffs=0 / rd=3 / psy-rd=2.00 / rdoq-level=0 / psy-rdoq=0.00 / log2-max-poc-lsb=8 / no-rd-refine / signhide / deblock=0:0 / no-sao / no-sao-non-deblock / b-pyramid / cutree / no-intra-refresh / rc=crf / crf=23.0 / qcomp=0.60 / qpmin=0 / qpmax=69 / qpstep=4 / ipratio=1.40 / pbratio=1.30
Default                                  : Yes
Forced                                   : No
DURATION                                 : 01:56:51.004000000
NUMBER_OF_FRAMES                         : 168096
NUMBER_OF_BYTES                          : 2766088208
_STATISTICS_WRITING_APP                  : mkvmerge v10.0.0 ('To Drown In You') 64bit
_STATISTICS_WRITING_DATE_UTC             : 2018-08-18 14:40:11
_STATISTICS_TAGS                         : BPS DURATION NUMBER_OF_FRAMES NUMBER_OF_BYTES

Audio #1
ID                                       : 2
Format                                   : AC-3
Format/Info                              : Audio Coding 3
Mode extension                           : CM (complete main)
Format settings, Endianness              : Big
Codec ID                                 : A_AC3
Duration                                 : 1h 56mn
Bit rate mode                            : Constant
Bit rate                                 : 384 Kbps
Channel(s)                               : 6 channels
Channel positions                        : Front: L C R, Side: L R, LFE
Sampling rate                            : 48.0 KHz
Bit depth                                : 16 bits
Compression mode                         : Lossy
Delay relative to video                  : -5ms
Stream size                              : 321 MiB (10%)
Title                                    : Surround
Language                                 : German
Default                                  : Yes
Forced                                   : No
DURATION                                 : 01:56:50.976000000
NUMBER_OF_FRAMES                         : 219093
NUMBER_OF_BYTES                          : 336526848
_STATISTICS_WRITING_APP                  : mkvmerge v10.0.0 ('To Drown In You') 64bit
_STATISTICS_WRITING_DATE_UTC             : 2018-08-18 14:40:11
_STATISTICS_TAGS                         : BPS DURATION NUMBER_OF_FRAMES NUMBER_OF_BYTES

Audio #2
ID                                       : 3
Format                                   : AC-3
Format/Info                              : Audio Coding 3
Mode extension                           : CM (complete main)
Format settings, Endianness              : Big
Codec ID                                 : A_AC3
Duration                                 : 1h 56mn
Bit rate mode                            : Constant
Bit rate                                 : 384 Kbps
Channel(s)                               : 6 channels
Channel positions                        : Front: L C R, Side: L R, LFE
Sampling rate                            : 48.0 KHz
Bit depth                                : 16 bits
Compression mode                         : Lossy
Delay relative to video                  : -5ms
Stream size                              : 321 MiB (10%)
Title                                    : Surround
Language                                 : English
Default                                  : No
Forced                                   : No
DURATION                                 : 01:56:50.976000000
NUMBER_OF_FRAMES                         : 219093
NUMBER_OF_BYTES                          : 336526848
_STATISTICS_WRITING_APP                  : mkvmerge v10.0.0 ('To Drown In You') 64bit
_STATISTICS_WRITING_DATE_UTC             : 2018-08-18 14:40:11
_STATISTICS_TAGS                         : BPS DURATION NUMBER_OF_FRAMES NUMBER_OF_BYTES

Text #1
ID                                       : 4
Format                                   : ASS
Codec ID                                 : S_TEXT/ASS
Codec ID/Info                            : Advanced Sub Station Alpha
Compression mode                         : Lossless
Title                                    : German Forced
Language                                 : German
Default                                  : Yes
Forced                                   : Yes
DURATION                                 : 01:56:23.350000000
NUMBER_OF_FRAMES                         : 31
NUMBER_OF_BYTES                          : 1983
_STATISTICS_WRITING_APP                  : mkvmerge v10.0.0 ('To Drown In You') 64bit
_STATISTICS_WRITING_DATE_UTC             : 2018-08-18 14:40:11
_STATISTICS_TAGS                         : BPS DURATION NUMBER_OF_FRAMES NUMBER_OF_BYTES

Text #2
ID                                       : 5
Format                                   : ASS
Codec ID                                 : S_TEXT/ASS
Codec ID/Info                            : Advanced Sub Station Alpha
Compression mode                         : Lossless
Title                                    : Englisch Forced
Language                                 : English
Default                                  : No
Forced                                   : No
DURATION                                 : 01:45:38.341000000
NUMBER_OF_FRAMES                         : 66
NUMBER_OF_BYTES                          : 4046
_STATISTICS_WRITING_APP                  : mkvmerge v10.0.0 ('To Drown In You') 64bit
_STATISTICS_WRITING_DATE_UTC             : 2018-08-18 14:40:11
_STATISTICS_TAGS                         : BPS DURATION NUMBER_OF_FRAMES NUMBER_OF_BYTES

Text #3
ID                                       : 6
Format                                   : VobSub
Muxing mode                              : zlib
Codec ID                                 : S_VOBSUB
Codec ID/Info                            : The same subtitle format used on DVDs
Title                                    : German
Language                                 : German
Default                                  : No
Forced                                   : No

Text #4
ID                                       : 7
Format                                   : VobSub
Muxing mode                              : zlib
Codec ID                                 : S_VOBSUB
Codec ID/Info                            : The same subtitle format used on DVDs
Title                                    : Englisch
Language                                 : English
Default                                  : No
Forced                                   : No


Download:
Share Online Share OnlineShare OnlineShare Online
 

Kommentare