HD-AREA wünscht Euch eine besinnliche Weihnachtszeit ;)

DNS SERVER AENDERNum der staatlichen Zensur zu umgehen. Sollten wir von eurem Provider geseprrt werden, nutzt den TOR BROWSER oder ändert euren DNS SERVER.

Filmwünsche können bei uns im Forum abgegeben werden

Wir Speichern Nicht




 
 
 
Top Releases
Flatliners.2017.German.AC3.D...
The.Last.Movie.Star.2017.Ger...
The.Equalizer.2.2018.German....
The.Last.Movie.Star.2017.Ger...
BlacKkKlansman.2018.MULTi.CO...
Black.47.2018.German.DTS.HD....
Black.47.2018.MULTi.COMPLETE...
BlacKkKlansman.2018.German.D...
BlacKkKlansman.2018.German.7...
The.Last.Movie.Star.2017.Ger...

Cinedubs
Night.School.2018.GERMAN.DL....
Night.School.2018.GERMAN.DL....
Gaensehaut.2.Gruseliges.Hall...
Gaensehaut.2.Gruseliges.Hall...
Unknown.User.2.Dark.Web.Germ...
Unknown.User.2.Dark.Web.Germ...
Peppermint.Angel.of.Vengeanc...
Peppermint.Angel.of.Vengeanc...
Venom.German.DL.AC3.Dubbed.1...
Venom.2018.German.AC3D.5.1.D...

Neuerscheinungen 2017-18
Future.World.2018.German.AC3...
Mara.2018.MULTi.COMPLETE.BLU...
Gotti.A.Real.American.Godfat...
Mandy.the.Haunted.Doll.2018....
Mandy.the.Haunted.Doll.2018....
Mandy.the.Haunted.Doll.2018....
Mandy.the.Haunted.Doll.Mandy...
Wildling.2018.German.DL.1080...
Wildling.2018.German.720p.Bl...
Breaking.In.2018.German.DTS....

XXX
FatManFuck.17.10.08.Abbie.XX...
FatManFuck.17.10.03.Peaches....
MatureNL.18.11.30.Glynis.Ire...
Nerd.Pervert.Vol.31.XXX.1080...
MofosBSides.18.12.01.Monica....
MilfHunter.18.12.03.Victoria...
MatureNL.18.11.16.Danica.And...
MetArtX.18.12.01.Sybil.A.Lov...
MatureNL.18.11.23.Amy.Elizab...
MyFriendsHotMom.18.12.02.Van...
MyFamilyPies.18.12.03.Haley....
MonstersOfCock.18.12.02.Kali...
MatureNL.18.11.29.Calina.And...
MetArtX.18.12.03.Lena.Anders...
GroupSexGames.18.12.02.Lulu....
MatureNL.18.11.30.Elizabeth....
FatManFuck.17.10.15.Amber.XX...
Manuels.Maximum.Penetration....
Manuels.Maximum.Penetration....
Military.Minxes.XXX.720p.WEB...

3D
Gans.im.Glueck.3D.2018.MULTi...
The.Art.of.Flight.3D.2011.Ge...
The.End.Of.The.World.3D.2010...
The.First.Avenger.Civil.War....
Die.Unglaublichen.2.2018.3D....
Skyscraper.3D.2018.MULTi.COM...
Ant-Man.And.The.Wasp.3D.2018...
Ant.Man.and.the.Wasp.3D.2018...
Die.Unglaublichen.2.3D.2018....
Die.Unglaublichen.2.2018.3D....
Die.Unglaublichen.2.2018.3D....
Sharknado.6.The.Last.One.3D....
Deep.Kleine.Helden.der.Tiefs...
Deep.3D.2017.MULTI.COMPLETE....
Detective.Dee.und.die.Legend...

Old_Stuff
Akte.X.S04.German.DTS.DL.108...
Akte.X.S03.German.DTS.DL.108...
Dunkirk.1958.COMPLETE.BLURAY...
Das.Wunder.von.Manhattan.199...
The.Amazing.Spiderman.2.Rise...
Rise.of.the.Predator.2014.Ge...
Detective.Dee.und.das.Geheim...
Detective.Dee.Und.Der.Fluch....
Ghost.Rider.Spirit.of.Vengea...
Species.IV.Das.Erwachen.2007...
Species.IV.Das.Erwachen.2007...
Hotel.Transsilvanien.2012.Ge...
The.Dead.2010.German.DL.1080...
The.Dead.2.India.2013.German...
Britney.Spears.Live.The.Femm...

Filme
Vanilla.Sky.2001.German.DL.A...
Midnight.Run.1988.German.AC3...
Vikings.S05.GERMAN.1080p.Web...
Vikings.S05.GERMAN.720p.WebH...
The.Gifted.S02.GERMAN.DL.108...
The.Gifted.S02.GERMAN.720p.H...
Riverdale.US.S03.GERMAN.DL.1...
Riverdale.US.S03.GERMAN.DL.7...
Krypton.S01.COMPLETE.GERMAN....
Get.Shorty.S02.German.DD51.S...
Get.Shorty.S02.German.DD51.S...
Swedish.Dicks.S02.GERMAN.720...
Mission.Impossible.Fallout.2...
Swedish.Dicks.S02.German.DD2...
Vikings.S05.German.DD+51.DL....
Vikings.S05.German.DD+51.DL....
Halloween.II.1981.Remastered...
Ich.Einfach.unverbesserlich....
Category.7.Das.Ende.der.Welt...
Heut.gehn.wir.bummeln.1949.G...
Red.Scorpion.UNRATED.German....
Redbelt.German.DL.1080p.BluR...
Reflecting.Skin.Schrei.in.de...
Regression.2015.German.DL.10...

 
 
Das.Zeitraetsel.2018.German.DL.AC3D.720p.BluRay.x264-GSG9
Jahr: 2018
Genre: Abenteuer, Fantasy
Sprache: Deutsch AC3 | Englisch AC3
Laufzeit: 1h 45mn
Bitrate: 6 875 Kbps
Format: MKV
Größe: 5.05 GiB
Release:

Beschreibung:

Meg Murry (Storm Reid) ist ein typischer Teenager, der einfach nur dazugehören möchte. Die Tochter zweier weltberühmter Physiker ist, genau wie ihr kleiner Bruder Charles Wallace (Deric McCabe), hochintelligent und auf einzigartige Weise begabt. Was ihr Leben allerdings noch komplizierter macht, ist das plötzliche Verschwinden ihres Vaters (Chris Pine). Als Meg herausfindet, dass es etwas mit dem geheimen Projekt ihrer Eltern zu tun haben muss, nimmt die Sache ganz neue Dimensionen an: Um ihren Vater zu finden müssen Meg, ihr Klassenkamerad Calvin (Levi Miller) und ihr Bruder dieser mysteriösen Erfindung auf den Grund gehen und sich auf eine gewagte Expedition durch Raum und Zeit begeben, in der sie in Welten vordringen, die sich jenseits jeder Vorstellungskraft befinden. Neben vielen Gefahren gibt es allerdings auch unerwartete Hilfe von drei rätselhaften überirdischen Wesen (Mrs. Welche – Oprah Winfrey, Mrs. Soundso – Reese Witherspoon und Mrs. Wer – Mindy Kaling), die sie auf ihrem Weg begleiten.



Complete name                            : Das.Zeitraetsel.2018.German.DL.AC3D.720p.BluRay.x264-GSG9.mkv
Format                                   : Matroska
Format version                           : Version 4 / Version 2
File size                                : 5.05 GiB
Duration                                 : 1h 45mn
Overall bit rate                         : 6 875 Kbps
Encoded date                             : UTC 2018-08-11 07:58:52
Writing application                      : mkvmerge v20.0.0 ('I Am The Sun') 64-bit
Writing library                          : libebml v1.3.5 + libmatroska v1.4.8
DURATION                                 : 01:45:07.232000000
NUMBER_OF_FRAMES                         : 197101
NUMBER_OF_BYTES                          : 302747136
_STATISTICS_WRITING_APP                  : mkvmerge v20.0.0 ('I Am The Sun') 64-bit
_STATISTICS_WRITING_DATE_UTC             : 2018-08-11 07:58:52
_STATISTICS_TAGS                         : BPS DURATION NUMBER_OF_FRAMES NUMBER_OF_BYTES

Video
ID                                       : 1
Format                                   : AVC
Format/Info                              : Advanced Video Codec
Format profile                           : High@L4.1
Format settings, CABAC                   : Yes
Format settings, ReFrames                : 5 frames
Codec ID                                 : V_MPEG4/ISO/AVC
Duration                                 : 1h 45mn
Bit rate                                 : 5 610 Kbps
Width                                    : 1 280 pixels
Height                                   : 536 pixels
Display aspect ratio                     : 2.40:1
Frame rate mode                          : Constant
Frame rate                               : 25.000 fps
Original frame rate                      : 23.976 fps
Color space                              : YUV
Chroma subsampling                       : 4:2:0
Bit depth                                : 8 bits
Scan type                                : Progressive
Bits/(Pixel*Frame)                       : 0.327
Stream size                              : 4.20 GiB (83%)
Writing library                          : x264 core 155 r2901 7d0ff22
Encoding settings                        : cabac=1 / ref=5 / deblock=1:-2:-2 / analyse=0x3:0x113 / me=umh / subme=8 / psy=1 / psy_rd=1.00:0.00 / mixed_ref=1 / me_range=16 / chroma_me=1 / trellis=2 / 8x8dct=1 / cqm=0 / deadzone=21,11 / fast_pskip=1 / chroma_qp_offset=-2 / threads=12 / lookahead_threads=2 / sliced_threads=0 / nr=0 / decimate=1 / interlaced=0 / bluray_compat=0 / constrained_intra=0 / bframes=3 / b_pyramid=2 / b_adapt=2 / b_bias=0 / direct=3 / weightb=1 / open_gop=0 / weightp=2 / keyint=240 / keyint_min=24 / scenecut=40 / intra_refresh=0 / rc_lookahead=50 / rc=2pass / mbtree=1 / bitrate=5610 / ratetol=1.0 / qcomp=0.60 / qpmin=0 / qpmax=69 / qpstep=4 / cplxblur=20.0 / qblur=0.5 / ip_ratio=1.40 / aq=1:1.00
Language                                 : English
Default                                  : Yes
Forced                                   : No
DURATION                                 : 01:45:08.040000000
NUMBER_OF_FRAMES                         : 157701
NUMBER_OF_BYTES                          : 4611979781
_STATISTICS_WRITING_APP                  : mkvmerge v20.0.0 ('I Am The Sun') 64-bit
_STATISTICS_WRITING_DATE_UTC             : 2018-08-11 07:58:52
_STATISTICS_TAGS                         : BPS DURATION NUMBER_OF_FRAMES NUMBER_OF_BYTES

Audio #1
ID                                       : 2
Format                                   : AC-3
Format/Info                              : Audio Coding 3
Mode extension                           : CM (complete main)
Format settings, Endianness              : Big
Codec ID                                 : A_AC3
Duration                                 : 1h 45mn
Bit rate mode                            : Constant
Bit rate                                 : 384 Kbps
Channel(s)                               : 6 channels
Channel positions                        : Front: L C R, Side: L R, LFE
Sampling rate                            : 48.0 KHz
Bit depth                                : 16 bits
Compression mode                         : Lossy
Delay relative to video                  : 820ms
Stream size                              : 289 MiB (6%)
Language                                 : German
Default                                  : Yes
Forced                                   : No

Audio #2
ID                                       : 3
Format                                   : AC-3
Format/Info                              : Audio Coding 3
Mode extension                           : CM (complete main)
Format settings, Endianness              : Big
Codec ID                                 : A_AC3
Duration                                 : 1h 45mn
Bit rate mode                            : Constant
Bit rate                                 : 640 Kbps
Channel(s)                               : 6 channels
Channel positions                        : Front: L C R, Side: L R, LFE
Sampling rate                            : 48.0 KHz
Bit depth                                : 16 bits
Compression mode                         : Lossy
Stream size                              : 481 MiB (9%)
Language                                 : English
Default                                  : No
Forced                                   : No

Text
ID                                       : 4
Format                                   : UTF-8
Codec ID                                 : S_TEXT/UTF8
Codec ID/Info                            : UTF-8 Plain Text
Title                                    : ger-forced-srt
Language                                 : German
Default                                  : Yes
Forced                                   : No


Download:
Share Online Share OnlineShare OnlineShare Online
 

Kommentare