DNS SERVER AENDERNum der staatlichen Zensur zu umgehen. Sollten wir von eurem Provider geseprrt werden, nutzt den TOR BROWSER oder ändert euren DNS SERVER.

Filmwünsche können bei uns im Forum abgegeben werden

Wir Speichern Nicht




 
 
 
Top Releases
Outrage.Coda.GERMAN.2017.DL....
Outrage.Coda.GERMAN.2017.DL....
Solo.A.Star.Wars.Story.2018....
Early.Man.Steinzeit.bereit.2...
The.Kings.Ring.Die.Letzte.Sc...
Bleach.2018.German.DL.AC3.10...
Bleach.2018.German.DL.AC3.72...
Solo.A.Star.Wars.Story.2018....
Vorbilder.aka.Role.Models.UN...
Freddy.Eddy.2016.German.AC3....

Cinedubs
The.First.Purge.German.DL.AC...
The.First.Purge.German.DL.AC...
Hotel.Transsilvanien.3.Ein.M...
Hotel.Transsilvanien.3.Ein.M...
Meg.German.DL.AC3.Dubbed.720...
Meg.German.DL.AC3.Dubbed.108...
Jurassic.World.2.Das.gefalle...
Mission.Impossible.Fallout.G...
Mission.Impossible.Fallout.G...
Sicario.2.2018.German.AC3MD....

Neuerscheinungen 2017-18
Hes.Out.There.2018.GERMAN.DL...
Hes.Out.There.2018.GERMAN.DL...
Weltengaenger.2018.GERMAN.10...
Weltengaenger.2018.GERMAN.72...
Weltengaenger.2018.GERMAN.DU...
Zu.neuen.Ufern.1937.GERMAN.C...
Violet.Evergarden.Vol1.D1+2....
Robin.Hood.2010.MULTi.COMPLE...
Das.Blutbiest.The.Blood.Beas...
Der.Blaufuchs.1938.GERMAN.CO...

XXX
Boober.2.XXX.iNTERNAL.720p.W...
CherryPimps.18.09.10.Krissy....
BrownBunnies.18.09.07.Honey....
ATKHairy.18.09.09.Andy.Moon....
BrazzersExxtra.18.09.10.Lela...
BrattySis.18.09.07.Ashely.Oc...
WankItNow.17.10.03.Zoe.Page....
Beat.My.Beanbag.XXX.1080p.WE...
BrickYates.18.08.28.Alexis.C...
WoodmanCastingX.15.12.29.Ros...
Bang.RealTeens.18.09.10.Bamb...
WankItNow.17.10.04.Charlie.R...
ChicasLoca.18.09.10.Andreina...
ClaudiaMarie.18.09.07.Teen.D...
Babes.18.09.07.Misty.Stone.T...
WoodmanCastingX.15.12.05.Ley...
Babes.18.09.09.Gianna.Dior.B...
BrazzersExxtra.18.09.07.Vien...
WoodmanCastingX.15.07.26.Ann...
BadDaddyPOV.18.09.07.Sadie.H...

3D
Die.Biene.Maja.2.Die.Honigsp...
Avengers.Infinity.War.3D.201...
Avengers.Infinity.War.3D.201...
Rampage.Big.Meets.Bigger.3D....
Rampage.Big.Meets.Bigger.3D....
Rampage.Big.Meets.Bigger.3D....
Winter.Games.3D.2013.DUAL.CO...
Tomb.Raider.3D.2018.German.7...
Rampage.Big.Meets.Bigger.3D....
Rampage.Big.Meets.Bigger.3D....
Tomb.Raider.3D.2018.MULTi.CO...
Pacific.Rim.Uprising.3D.2018...
Ready.Player.One.3D.2018.Ger...
Rampage.-.Big.Meets.Bigger.2...
Ready.Player.One.2018.3D.HOU...

Old_Stuff
How.I.Met.Your.Mother.S02.Ge...
Akte.X.S01.German.DTS.DL.108...
Den.Himmel.gibts.echt.DL.108...
Vikings.S02.German.DL.1080p....
Be.Kind.Rewind.Abgedreht.200...
Be.Kind.Rewind.Abgedreht.200...
Dracula.The.Dark.Lord.2012.G...
21.2008.German.DL.1080p.BluR...
Achtung.fertig.WK.Swissgerma...
The.Ouija.Exorcism.2015.MULT...
Meine.liebe.Rabenmutter.germ...
Da.Vincis.Demons.S01.Complet...
Eragon.Das.Vermaechtnis.der....
Adele.und.das.Geheimnis.des....
Die.fabelhafte.Welt.der.Amel...

Filme
Hammer.of.the.Gods.2013.Germ...
The.Big.Bang.Theory.S11.Germ...
The.Big.Bang.Theory.S11.Germ...
Quiz.Show.1994.German.AC3D.7...
Vierzehn.Jahre.Sing-Sing.194...
Legends.of.Tomorrow.S03.Germ...
Draft.Day.2014.German.DL.108...
Better.Call.Saul.S04.German....
Better.Call.Saul.S04.German....
Hard.to.Fight.2004.German.AC...
Im.Land.der.Dinosaurier.2014...
Leon.der.Profi.1994.German.D...
Sie.leben.1988.Collectors.Ed...
Die.Maske.des.Fu-Manchu.1932...
Rapid.Fire.Uncut.1992.German...
Robin.Hood.2010.UNRATED.Germ...
Elementary.S06.GERMAN.DUBBED...
Timeless.S02.COMPLETE.German...
Timeless.S02.COMPLETE.German...
Timeless.S01.COMPLETE.German...
Timeless.S01.COMPLETE.German...
Fear.The.Walking.Dead.S04.Ge...
Fear.The.Walking.Dead.S04.Ge...
Modern.Family.S08.GERMAN.DUB...

 
 
Die.Biene.Maja.2.Die.Honigspiele.2018.German.DTS.1080p.BluRay.x264.RERiP-4DDL
Jahr: 2018
Genre: Animation, Familie
Sprache: Deutsch DTS
Laufzeit: 1h 25mn
Bitrate: 6 149 Kbps
Format: MKV
Größe: 3.66 GiB
Release:

Beschreibung:
Die kleine Biene Maja (Stimme: Theresa Zertani) ist ganz aufgeregt: Die Kaiserin (Andrea Sawatzki) von Summtropolis hat einen Boten zur Klatschmohnwiese geschickt und Maja hofft, dass er eine Einladung zu den bevorstehenden Honigspielen überbringt. Da ist die Enttäuschung groß, als der Gesandte stattdessen die Hälfte der Honigvorräte für die Spiele einfordert. Ohne den Honig kann Majas Bienenstock den kommenden Winter jedoch kaum überstehen und so beschließt die kleine Biene empört, mit ihrem Freund Willi (Jan Delay) nach Summtropolis zu reisen, um der Kaiserin die Meinung zu sagen. Doch die ist gar nicht erfreut, dass einer ihrer Untertanen so frech zu ihr ist, und will Maja eine Lektion erteilen: Sie darf an den Honigspielen teilnehmen, doch unter hohem Einsatz, denn wenn Maja mit ihrem Team verliert, müssen die Bienen der Klatschmohnwiese ihren gesamten Honig abgeben! Das darf nicht geschehen und Maja beginnt, fleißig für den Wettbewerb zu trainieren…


Unique ID                                : 208402828114042126513025067265522914465 (0x9CC8ECBA2FC4B416B2F522684D1FD4A1)
Complete name                            : Die.Biene.Maja.2.Die.Honigspiele.2018.German.DTS.1080p.BluRay.x264.RERiP-4DDL.mkv
Format                                   : Matroska
Format version                           : Version 2
File size                                : 3.66 GiB
Duration                                 : 1h 25mn
Overall bit rate mode                    : Variable
Overall bit rate                         : 6 149 Kbps
Encoded date                             : UTC 2018-09-13 08:28:39
Writing application                      : mkvmerge v3.4.0 ('Rapunzel') built on May 15 2010 09:38:20
Writing library                          : libebml v0.8.0 + libmatroska v0.9.0

Video
ID                                       : 1
Format                                   : AVC
Format/Info                              : Advanced Video Codec
Format profile                           : High@L4.1
Format settings, CABAC                   : Yes
Format settings, ReFrames                : 3 frames
Codec ID                                 : V_MPEG4/ISO/AVC
Duration                                 : 1h 25mn
Bit rate mode                            : Variable
Bit rate                                 : 4 517 Kbps
Maximum bit rate                         : 15.0 Mbps
Width                                    : 1 920 pixels
Height                                   : 1 036 pixels
Display aspect ratio                     : 1.85:1
Frame rate mode                          : Constant
Frame rate                               : 23.976 fps
Color space                              : YUV
Chroma subsampling                       : 4:2:0
Bit depth                                : 8 bits
Scan type                                : Progressive
Bits/(Pixel*Frame)                       : 0.095
Stream size                              : 2.69 GiB (73%)
Writing library                          : x264 core 155 r2901 7d0ff22
Encoding settings                        : cabac=1 / ref=4 / deblock=1:0:0 / analyse=0x3:0x113 / me=hex / subme=8 / psy=1 / psy_rd=1.00:0.00 / mixed_ref=1 / me_range=16 / chroma_me=1 / trellis=2 / 8x8dct=1 / cqm=0 / deadzone=21,11 / fast_pskip=1 / chroma_qp_offset=-2 / threads=12 / lookahead_threads=2 / sliced_threads=0 / slices=4 / nr=0 / decimate=1 / interlaced=0 / bluray_compat=1 / constrained_intra=0 / bframes=3 / b_pyramid=1 / b_adapt=1 / b_bias=0 / direct=3 / weightb=1 / open_gop=1 / weightp=1 / keyint=23 / keyint_min=1 / scenecut=40 / intra_refresh=0 / rc_lookahead=23 / rc=crf / mbtree=1 / crf=19.0 / qcomp=0.60 / qpmin=0 / qpmax=51 / qpstep=4 / vbv_maxrate=15000 / vbv_bufsize=15000 / crf_max=0.0 / nal_hrd=vbr / filler=0 / ip_ratio=1.40 / aq=1:1.00
Default                                  : No
Forced                                   : No
Color primaries                          : BT.709
Transfer characteristics                 : BT.709
Matrix coefficients                      : BT.709

Audio
ID                                       : 2
Format                                   : DTS
Format/Info                              : Digital Theater Systems
Mode                                     : 16
Format settings, Endianness              : Big
Codec ID                                 : A_DTS
Duration                                 : 1h 25mn
Bit rate mode                            : Constant
Bit rate                                 : 1 509 Kbps
Channel(s)                               : 6 channels
Channel positions                        : Front: L C R, Side: L R, LFE
Sampling rate                            : 48.0 KHz
Bit depth                                : 24 bits
Compression mode                         : Lossy
Stream size                              : 919 MiB (25%)
Language                                 : German
Default                                  : Yes
Forced                                   : No

Text
ID                                       : 3
Format                                   : VobSub
Muxing mode                              : zlib
Codec ID                                 : S_VOBSUB
Codec ID/Info                            : The same subtitle format used on DVDs
Language                                 : German
Default                                  : No
Forced                                   : No


Download:
Share Online Share OnlineShare OnlineShare Online
 

Kommentare