Wenn ihr heute Zeit habt, lasst das Filme gucken und bewegt eure Hintern auf die Straße. Ansonsten bleibt es dank Artikel 13 bei uns auch bald für immer dunkel.
 
 
 
Top Releases
The.Grinch.2018.MULTi.COMPLE...
Burn.out.2017.German.720p.WE...
Burn.out.2017.German.1080p.W...
Parallelwelten.2018.German.1...
Parallelwelten.2018.German.7...
Triple.Threat.2019.German.AC...
Triple.Threat.2019.German.AC...
Werk.ohne.Autor.2018.GERMAN....
Wackersdorf.2018.German.DTS....
Radius.2017.German.DTS.DL.10...

Cinedubs
Level.16.2019.German.AC3.DL....
Level.16.2019.German.AC3.DL....
Die.Frau.im.Eis.2018.German....
Die.Frau.im.Eis.2018.German....
Vice.Der.zweite.Mann.2018.Ge...
Vice.Der.zweite.Mann.2018.Ge...
Bumblebee.2018.German.DL.AC3...
Bumblebee.2018.German.DL.AC3...
Happy.Death.Day.2U.2019.Germ...
Happy.Death.Day.2U.2019.Germ...

Neuerscheinungen 2018-19
The.Lighthouse.2016.MULTi.CO...
City.of.Angels.Verliebt.in.L...
Against.the.Night.2017.MULTi...
Ittefaq.Es.geschah.eines.Nac...
Phobia.2016.German.1080p.HDT...
Wahnsinnig.verliebt.2016.Ger...
Foltergarten.der.Sinnlichkei...
Casino.1995.German.DL.1080p....
Assassination.Nation.2018.Ge...
Die.Hueterin.der.Wahrheit.2....

XXX
BigGulpGirls.19.03.14.Nina.S...
FacialAbuse.E717.If.The.Borg...
If.You.Want.Em.Grannies.Got....
Miles.Longs.Full.Service.POV...
AleahJasmine.19.03.16.Dom.XX...
Your.Wife.Is.Hot.And.I.Want....
Lesbian.Encounters.XXX.iNTER...
TheWhiteBoxxx.19.03.16.Loven...
NetVideoGirls.19.03.05.Adira...
GrandParentsX.19.01.10.Teen....
FTVGirls.19.03.17.Naomi.A.Se...
If.You.Want.Em.Grannies.Got....
GrandParentsX.19.02.21.Cute....
Wet.Dripping.Bitches.XXX.108...
Personal.Assistants.6.XXX.72...
Hungry.Youngsters.2.XXX.1080...
MetArtX.19.03.16.Violette.Pi...
FallInLovia.19.03.15.Sneaky....
Hitzefrei.19.03.15.Kylie.Kay...
Bukatsu.Nisshi.Takkyubu.XXX....

3D
Phantastische.Tierwesen.Grin...
Die.Schoene.und.das.Biest.3D...
Die.Legende.der.Waechter.3D....
Die.Karte.meiner.Traeume.3D....
Der.Grinch.3D.2018.German.DL...
Phantastische.Tierwesen.Grin...
Phantastische.Tierwesen.Grin...
Operation.Nussknacker.2.Voll...
Phantastische.Tierwesen.und....
Phantastische.Tierwesen.und....
Top.Gun.3D.1986.COMPLETE.BLU...
Passengers.2016.3D.HOU.Germa...
Venom.3D.2018.German.DL.1080...
Venom.3D.2018.MULTi.COMPLETE...
Passengers.2016.3D.HSBS.Germ...

Old_Stuff
Akte.X.S07.German.DTS.DL.108...
Iron.Man.3.2013.DUAL.COMPLET...
Something.Wild.Gefaehrliche....
October.Sky.1999.German.DL.7...
Lost.in.Translation.2003.Ger...
Lost.in.Translation.2003.Ger...
500.Days.of.Summer.2009.Germ...
Soylent.Green.2022.die.ueber...
Drive.2011.German.DL.DTS.108...
Die.Schoene.und.das.Biest.Sp...
Kung.Fu.Panda.2008.German.DL...
Cars.2006.German.1080p.BluRa...
Die.Bestimmung.Divergent.201...
Disneys.Eine.Weihnachtsgesch...
Shrek.der.Dritte.2007.German...

Filme
Bull.2016.S03.GERMAN.DL.1080...
Bull.2016.S03.GERMAN.720p.HD...
Doctor.Who.S11.GERMAN.DUBBED...
8.Tage.S01.GERMAN.1080p.HDTV...
8.Tage.S01.GERMAN.720p.HDTV....
Force.Five.Die.Macht.der.Fue...
Friedhof.der.Kuscheltiere.19...
Faces.in.the.Crowd.2011.Germ...
Pets.2016.German.UHDBD.2160p...
James.Bond.007.Man.lebt.nur....
Krypton.S01D01-2.GERMAN.DL.C...
Ittefaq.Es.geschah.eines.Nac...
Phobia.2016.German.720p.HDTV...
Wahnsinnig.verliebt.2016.Ger...
Foltergarten.der.Sinnlichkei...
Casino.1995.German.720p.BluR...
Shut.Eye.S02.GERMAN.DL.1080p...
Shut.Eye.S02.GERMAN.DL.720p....
Midnight.Texas.S01.German.DD...
Midnight.Texas.S01.German.DD...
Star.Trek.Discovery.S02.Germ...
Star.Trek.Discovery.S02.Germ...
Star.Trek.Discovery.S02.Germ...
James.Bond.007.In.toedlicher...

 
 
Criminal.Minds.S14.German.DL.DUBBED.720p.WebHD.x264-CNHD
Jahr: 2018
Genre: Krimi | Drama | Mystery
Sprache: Deutsch AC3 | Englisch AC3
Laufzeit: 40min je Folge
Bitrate: 1900 Kbps
Format: MKV
Größe: 750 MB je Folge
Release:

Beschreibung:

In einer Spezialeinheit des FBI, der sogenannten BAU („Behavioral Analysis Unit“) werden anhand von Charakteranalysen von Serientätern mögliche weitere Schritte der Kriminellen vorausgesagt. Dabei spielt weniger das eigentliche Verbrechen, das es zu lösen gilt, eine Rolle. Vielmehr sollen die Beamten, die im Bereich der operativen Fallanalyse arbeiten, die Täter möglichst genau auf bestimmte Merkmale eingegrenzt werden.

 

enthaltene Folgen:

Criminal.Minds.S14E01.German.DL.DUBBED.720p.WebHD.x264-CNHD

Criminal.Minds.S14E02.German.DL.DUBBED.720p.WebHD.x264-CNHD

Criminal.Minds.S14E03.German.DL.DUBBED.720p.WebHD.x264-CNHD

Criminal.Minds.S14E04.German.DL.DUBBED.720p.WebHD.x264-CNHD

Criminal.Minds.S14E05.German.DL.DUBBED.720p.WebHD.x264-CNHD

Criminal.Minds.S14E06.German.DL.DUBBED.720p.WebHD.x264-CNHD

Criminal.Minds.S14E07.German.DL.DUBBED.720p.WebHD.x264-CNHD

Criminal.Minds.S14E08.German.DL.DUBBED.720p.WebHD.x264-CNHD

Criminal.Minds.S14E09.German.DL.DUBBED.720p.WebHD.x264-CNHD

Criminal.Minds.S14E10.German.DL.DUBBED.720p.WebHD.x264-CNHD

Criminal.Minds.S14E11.German.DL.DUBBED.720p.WebHD.x264-CNHD

Criminal.Minds.S14E12.German.DL.DUBBED.720p.WebHD.x264-CNHD NEU



General
Complete name                            : Criminal.Minds.S14E01.German.DL.DUBBED.720p.WebHD.x264-CNHD\cnhd-criminalminds-s14e01-720p.mkv
Format                                   : Matroska
Format version                           : Version 4 / Version 2
File size                                : 732 MiB
Duration                                 : 39mn 59s
Overall bit rate                         : 2 561 Kbps
Encoded date                             : UTC 2018-12-29 22:27:22
Writing application                      : mkvmerge v26.0.0 ('In The Game') 64-bit
Writing library                          : libebml v1.3.6 + libmatroska v1.4.9
DURATION                                 : 00:39:59.360000000
NUMBER_OF_FRAMES                         : 74980
NUMBER_OF_BYTES                          : 115169280
_STATISTICS_WRITING_APP                  : mkvmerge v26.0.0 ('In The Game') 64-bit
_STATISTICS_WRITING_DATE_UTC             : 2018-12-29 22:27:22
_STATISTICS_TAGS                         : BPS DURATION NUMBER_OF_FRAMES NUMBER_OF_BYTES

Video
ID                                       : 1
Format                                   : AVC
Format/Info                              : Advanced Video Codec
Format profile                           : High@L3.1
Format settings, CABAC                   : Yes
Format settings, ReFrames                : 5 frames
Codec ID                                 : V_MPEG4/ISO/AVC
Duration                                 : 39mn 59s
Bit rate                                 : 1 934 Kbps
Width                                    : 1 280 pixels
Height                                   : 720 pixels
Display aspect ratio                     : 16:9
Frame rate mode                          : Constant
Frame rate                               : 25.000 fps
Color space                              : YUV
Chroma subsampling                       : 4:2:0
Bit depth                                : 8 bits
Scan type                                : Progressive
Bits/(Pixel*Frame)                       : 0.084
Stream size                              : 553 MiB (76%)
Language                                 : German
Default                                  : Yes
Forced                                   : No
Color primaries                          : BT.709
Transfer characteristics                 : BT.709
Matrix coefficients                      : BT.709

Audio #1
ID                                       : 2
Format                                   : AC-3
Format/Info                              : Audio Coding 3
Mode extension                           : CM (complete main)
Format settings, Endianness              : Big
Codec ID                                 : A_AC3
Duration                                 : 39mn 59s
Bit rate mode                            : Constant
Bit rate                                 : 192 Kbps
Channel(s)                               : 2 channels
Channel positions                        : Front: L R
Sampling rate                            : 48.0 KHz
Bit depth                                : 16 bits
Compression mode                         : Lossy
Stream size                              : 54.9 MiB (7%)
Language                                 : German
Default                                  : Yes
Forced                                   : No

Audio #2
ID                                       : 3
Format                                   : AC-3
Format/Info                              : Audio Coding 3
Mode extension                           : CM (complete main)
Format settings, Endianness              : Big
Codec ID                                 : A_AC3
Duration                                 : 39mn 59s
Bit rate mode                            : Constant
Bit rate                                 : 384 Kbps
Channel(s)                               : 6 channels
Channel positions                        : Front: L C R, Side: L R, LFE
Sampling rate                            : 48.0 KHz
Bit depth                                : 16 bits
Compression mode                         : Lossy
Stream size                              : 110 MiB (15%)
Language                                 : English
Default                                  : No
Forced                                   : No



Download:
Share-Online.biz Share-Online.bizShare-Online.bizShare-Online.biz | Rapidgator.net Rapidgator.netRapidgator.netRapidgator.net
 

Kommentare