DNS SERVER ÄNDERN, um der staatlichen Zensur zu entgehen. Sollten wir von eurem Provider gesperrt werden, nutzt den TOR BROWSER oder ändert die DNS SERVER.

Filmwünsche können bei uns im Forum abgegeben werden

Wir Speichern Nicht




 
 
 
Top Releases
Mary.Poppins.Rueckkehr.2018....
Spider.Man.A.New.Universe.20...
Spider.Man.A.New.Universe.20...
Tu.Hijo.Sohn.der.Vergeltung....
Spider-Man.A.New.Universe.Sp...
Spider.Man.A.New.Universe.20...
Spider.Man.A.New.Universe.20...
Spider-Man.A.New.Universe.Sp...
Mid90s.2018.German.DL.1080p....
Mid90s.2018.German.DL.1080p....

Cinedubs
Abgeschnitten.2018.German.AC...
Abgeschnitten.2018.German.AC...
25.kmh.2018.German.AC3.720p....
25.kmh.2018.German.AC3.1080p...
The.Sisters.Brothers.2018.GE...
The.Sisters.Brothers.2018.GE...
Manhattan.Queen.2018.German....
Manhattan.Queen.2018.German....
Ein.Gauner.und.Gentleman.201...
Ein.Gauner.und.Gentleman.201...

Neuerscheinungen 2018-19
Max.Agent.auf.vier.Pfoten.20...
Tigerland.2000.German.DL.108...
Our.House.2018.GERMAN.DL.108...
Set.Up.2011.German.DL.1080p....
Art.Of.Revenge.Mein.Koerper....
Der.Joker.The.Joker.1987.MUL...
Die.Unbezaehmbaren.1955.Germ...
The.Green.Mile.1999.German.D...
Kampf.der.Titanen.2010.Germa...
Die.Supermonster.Tierisch.gu...

XXX
Hegre.19.04.09.Angelique.Fir...
GirlsOutWest.19.04.12.Dodi.S...
DorcelClub.19.04.12.Clea.Gau...
KatieBanks.19.04.03.Edging.M...
OyeLoca.19.04.09.Mariana.Mar...
WebYoung.19.04.12.Kendra.Spa...
MenPOV.19.01.04.James.Fenlon...
ShareMyBF.19.04.11.Candice.D...
FirstAnalQuest.19.04.09.Alit...
KarupsHA.19.04.09.Mandy.XXX....
TonightsGirlfriend.19.04.12....
Anilos.19.04.12.Alby.Daor.Al...
ElegantRaw.19.04.09.Lady.Dee...
OnlyTeenBlowJobs.19.04.11.Na...
DogHouseDigital.19.04.10.Nao...
SexArt.19.04.10.Anya.Krey.An...
TheLifeErotic.19.04.11.Veron...
Analized.19.04.08.Karma.RX.A...
StrandedTeens.19.04.10.Abby....
DorcelClub.19.04.12.Cherry.K...

3D
Mortal.Engines.Krieg.der.Sta...
Mortal.Engines.Krieg.der.Sta...
Aquaman.3D.2018.MULTi.COMPLE...
The.Grinch.2018.3D.COMPLETE....
Der.Grinch.3D.2018.German.DL...
Phantastische.Tierwesen.Grin...
Die.Schoene.und.das.Biest.3D...
Die.Legende.der.Waechter.3D....
Die.Karte.meiner.Traeume.3D....
Der.Grinch.3D.2018.German.DL...
Phantastische.Tierwesen.Grin...
Phantastische.Tierwesen.Grin...
Operation.Nussknacker.2.Voll...
Phantastische.Tierwesen.und....
Phantastische.Tierwesen.und....

Old_Stuff
The.Karate.Kid.1984.MULTi.CO...
Dangerous.Liaisons.2012.1080...
Gefahr.und.Begierde.2007.DUA...
The.Punisher.2004.EXTENDED.D...
Iron.Man.2.2010.DUAL.COMPLET...
Akte.X.S10.German.DTS.DL.108...
Akte.X.S09.German.DTS.DL.108...
Akte.X.S08.German.DTS.DL.108...
Wild.Things.4.UNRATED.2010.G...
The.Gingerbread.Man.1998.Ger...
Payback.Zahltag.Theatrical.C...
Johnny.English.Jetzt.erst.re...
Pacific.Rim.3D.2013.MULTi.CO...
Akte.X.S07.German.DTS.DL.108...
Iron.Man.3.2013.DUAL.COMPLET...

Filme
Spider-Man.A.New.Universe.20...
Soldiers.of.Abu.Ghraib.2014....
The.Nice.Guys.2016.German.DT...
Malavita.The.Family.2013.Ger...
Mohawk.2017.German.DTS.DL.10...
Operation.Golden.Job.2018.Ge...
The.Cabin.In.The.Woods.Germa...
Hell.Fire.Der.Sohn.des.Teufe...
360.Jede.Begegnung.hat.Folge...
Kinjite.Toedliches.Tabu.1989...
Die.Hoehle.der.Gesetzlosen.1...
Climax.2018.German.AC3.1080p...
Close.Dem.Feind.zu.nah.2019....
High.Fidelity.2000.German.DL...
Gangsterland.2010.German.108...
No.Offence.S03.MULTi.COMPLET...
Spider-Man.A.New.Universe.20...
Genova.2008.German.DL.1080p....
The.Cabin.In.The.Woods.2012....
Im.Reich.der.Sinne.1976.Germ...
This.Is.Us.S03.GERMAN.DL.108...
This.is.us.S03.GERMAN.DUBBED...
Shameless.S09.GERMAN.DUBBED....
Shameless.S09.GERMAN.DUBBED....

 
 
NCIS.S16.GERMAN.DL.DUBBED.1080p.WEB.h264-VoDTv
Jahr: 2018
Genre: Action | Komödie | Krimi
Sprache: Deutsch AC3 | Englisch AC3
Laufzeit: 41min je Folge
Bitrate: 9100 Kbps
Format: MKV
Größe: 2,9 GB je Folge
Release:

Beschreibung:

„Navy CIS“ steht für Naval Criminal Investigative Service – es geht um ein Team von Spezialagenten, mit der Aufgabe, Verbrechen zu untersuchen, die mit Mitgliedern der Navy oder dem Marine Korps, egal welchen Ranges, zu tun haben. Geleitet wird das NCIS-Team von Special Agent Leroy Jethro Gibbs, der klug, hart und gewillt ist, die Regeln zu „dehnen“, um die gestellte Aufgabe zu lösen. „Navy CIS“ ist ein Spin-off der beliebten Action-Serie „J.A.G. – Im Auftrag der Ehre

 

enthaltene Folgen:

NCIS.S16E01.GERMAN.DL.DUBBED.1080p.WEB.REPACK.h264-VoDTv

NCIS.S16E02.GERMAN.DL.DUBBED.1080p.WEB.h264-VoDTv

NCIS.S16E03.GERMAN.DL.DUBBED.1080p.WEB.h264-VoDTv

NCIS.S16E04.GERMAN.DL.DUBBED.1080p.WEB.h264-VoDTv

NCIS.S16E05.GERMAN.DL.DUBBED.1080p.WEB.h264-VoDTv

NCIS.S16E06.GERMAN.DL.DUBBED.1080p.WEB.h264.REPACK-VoDTv

NCIS.S16E07.GERMAN.DL.DUBBED.1080p.WEB.h264-VoDTv

NCIS.S16E08.GERMAN.DL.DUBBED.1080p.WEB.h264-VoDTv

NCIS.S16E09.GERMAN.DL.DUBBED.1080p.WEB.h264-VoDTv

NCIS.S16E10.GERMAN.DL.DUBBED.1080p.WEB.h264-VoDTv

NCIS.S16E11.GERMAN.DL.DUBBED.1080p.WEB.h264-VoDTv

NCIS.S16E12.GERMAN.DL.DUBBED.1080p.WEB.h264-VoDTv

NCIS.S16E13.GERMAN.DL.DUBBED.1080p.WEB.h264-VoDTv

NCIS.S16E14.GERMAN.DL.DUBBED.1080p.WEB.h264-VoDTv NEU



General

Complete name                            : NCIS.S16E01.GERMAN.DL.DUBBED.1080p.WEB.REPACK.h264-VoDTv\vodtv-ncis_s16e01_repack.mkv
Format                                   : Matroska
Format version                           : Version 4 / Version 2
File size                                : 2.94 GiB
Duration                                 : 41mn 23s
Overall bit rate                         : 10.2 Mbps
Encoded date                             : UTC 2019-01-08 21:37:03
Writing application                      : mkvmerge v22.0.0 ('At The End Of The World') 64-bit
Writing library                          : libebml v1.3.5 + libmatroska v1.4.8
DURATION                                 : 00:41:23.168000000
NUMBER_OF_FRAMES                         : 77599
NUMBER_OF_BYTES                          : 59596032
_STATISTICS_WRITING_APP                  : mkvmerge v22.0.0 ('At The End Of The World') 64-bit
_STATISTICS_WRITING_DATE_UTC             : 2019-01-08 21:37:03
_STATISTICS_TAGS                         : BPS DURATION NUMBER_OF_FRAMES NUMBER_OF_BYTES

Video
ID                                       : 1
Format                                   : AVC
Format/Info                              : Advanced Video Codec
Format profile                           : High@L4.0
Format settings, CABAC                   : Yes
Format settings, ReFrames                : 4 frames
Codec ID                                 : V_MPEG4/ISO/AVC
Duration                                 : 41mn 23s
Bit rate                                 : 9 140 Kbps
Width                                    : 1 920 pixels
Height                                   : 1 080 pixels
Display aspect ratio                     : 16:9
Frame rate mode                          : Constant
Frame rate                               : 25.000 fps
Original frame rate                      : 24.000 fps
Color space                              : YUV
Chroma subsampling                       : 4:2:0
Bit depth                                : 8 bits
Scan type                                : Progressive
Bits/(Pixel*Frame)                       : 0.176
Stream size                              : 2.64 GiB (90%)
Default                                  : Yes
Forced                                   : No
Color primaries                          : BT.709
Transfer characteristics                 : BT.709
Matrix coefficients                      : BT.709

Audio #1
ID                                       : 2
Format                                   : AC-3
Format/Info                              : Audio Coding 3
Mode extension                           : CM (complete main)
Format settings, Endianness              : Big
Codec ID                                 : A_AC3
Duration                                 : 41mn 23s
Bit rate mode                            : Constant
Bit rate                                 : 192 Kbps
Channel(s)                               : 2 channels
Channel positions                        : Front: L R
Sampling rate                            : 48.0 KHz
Bit depth                                : 16 bits
Compression mode                         : Lossy
Stream size                              : 56.8 MiB (2%)
Language                                 : German
Default                                  : No
Forced                                   : No

Audio #2
ID                                       : 3
Format                                   : E-AC-3
Format/Info                              : Audio Coding 3
Format settings, Endianness              : Big
Codec ID                                 : A_EAC3
Duration                                 : 41mn 23s
Bit rate mode                            : Constant
Bit rate                                 : 640 Kbps
Channel(s)                               : 6 channels
Channel positions                        : Front: L C R, Side: L R, LFE
Sampling rate                            : 48.0 KHz
Compression mode                         : Lossy
Stream size                              : 189 MiB (6%)
Language                                 : English
Default                                  : No
Forced                                   : No



Download:
Share-Online.biz Share-Online.bizShare-Online.bizShare-Online.biz | Rapidgator.net Rapidgator.netRapidgator.netRapidgator.net
 

Kommentare