DNS SERVER ÄNDERN, um der staatlichen Zensur zu entgehen. Sollten wir von eurem Provider gesperrt werden, nutzt den TOR BROWSER oder ändert die DNS SERVER.

Filmwünsche können bei uns im Forum abgegeben werden

Wir Speichern Nicht




 
 
 
Top Releases
Mollys.Game.Alles.auf.eine.K...
Maria.Stuart.Koenigin.von.Sc...
Drachenzaehmen.leicht.gemach...
Drachenzaehmen.leicht.gemach...
The.Mule.2018.German.DL.1080...
Die.unglaublichen.Abenteuer....
Die.unglaublichen.Abenteuer....
The.Mule.2018.German.720p.Bl...
The.Mule.2018.German.DL.1080...
The.Mule.2018.MULTI.COMPLETE...

Cinedubs
Shazam.2019.German.AC3MD.DL....
Shazam.2019.German.AC3MD.DL....
Master.Z.Ip.Man.Legacy.2018....
Master.Z.Ip.Man.Legacy.2018....
Friedhof.der.Kuscheltiere.20...
Stan.and.Ollie.2018.German.A...
Stan.and.Ollie.2018.German.A...
Iron.Sky.2.The.Coming.Race.2...
Wenn.du.Koenig.waerst.2019.G...
Wenn.du.Koenig.waerst.2019.G...

Neuerscheinungen 2018-19
Aus.dem.Nichts.2017.German.D...
Die.Bounty.The.Bounty.1984.M...
No.Mans.Land.2001.German.108...
No.Mans.Land.2001.German.720...
Ballad.in.Blood.2016.German....
Ballad.in.Blood.2016.German....
Ballad.in.Blood.2016.German....
Soul.Plane.2004.German.DL.10...
Godzilla.1998.COMPLETE.UHD.B...
Ballad.in.Blood.2016.MULTi.C...

XXX
LethalHardcore.Girl.Scout.No...
LegalPorno.18.12.22.May.Thai...
MMVFilms.19.04.25.Valeria.Jo...
LegalPorno.18.12.10.Lauren.P...
LegalPorno.18.12.26.Natasha....
KarupsHA.19.04.25.Abby.Adams...
JimSlip.19.04.26.Belle.Ohara...
LoveHerFeet.19.04.26.Tiffany...
LustyGrandmas.19.04.25.Anast...
ATKGirlfriends.19.04.24.Ashl...
JesseLoadsMonsterFacials.19....
KarupsPC.19.04.23.Regina.XXX...
InterracialPass.19.05.10.Nad...
Joymii.19.04.26.Julia.Rain.C...
LetsTryAnal.19.04.26.Natasha...
InterracialPass.19.04.26.Mol...
KarupsPC.19.04.26.Wendy.XXX....
ATKGirlfriends.13.10.31.Lara...
KarupsHA.19.04.26.Selena.Kyl...
LesbianX.19.05.11.Cadence.Lu...

3D
Aquaman.3D.2018.German.DL.10...
Spider.Man.A.New.Universe.3D...
Hidden.3D.2011.German.DL.108...
Spider-Man.A.New.Universe.20...
Spider-Man.A.New.Universe.20...
Spider-Man.A.New.Universe.3D...
Mortal.Engines.Krieg.der.Sta...
Mortal.Engines.Krieg.der.Sta...
Aquaman.3D.2018.MULTi.COMPLE...
The.Grinch.2018.3D.COMPLETE....
Der.Grinch.3D.2018.German.DL...
Phantastische.Tierwesen.Grin...
Die.Schoene.und.das.Biest.3D...
Die.Legende.der.Waechter.3D....
Die.Karte.meiner.Traeume.3D....

Old_Stuff
Akte.X.S11.German.DTS.DL.108...
The.Karate.Kid.1984.MULTi.CO...
Dangerous.Liaisons.2012.1080...
Gefahr.und.Begierde.2007.DUA...
The.Punisher.2004.EXTENDED.D...
Iron.Man.2.2010.DUAL.COMPLET...
Akte.X.S10.German.DTS.DL.108...
Akte.X.S09.German.DTS.DL.108...
Akte.X.S08.German.DTS.DL.108...
Wild.Things.4.UNRATED.2010.G...
The.Gingerbread.Man.1998.Ger...
Payback.Zahltag.Theatrical.C...
Johnny.English.Jetzt.erst.re...
Pacific.Rim.3D.2013.MULTi.CO...
Akte.X.S07.German.DTS.DL.108...

Filme
Suedsee-Cowboy.1974.German.A...
Year.One.Aller.Anfang.ist.sc...
Nightmare.at.Horror.Castle.2...
The.Captive.Spurlos.verschwu...
Young.Victoria.2009.German.D...
8MM.-.Acht.Millimeter.Uncut....
MotoGP.Moto2.Moto3.Saison.20...
Die.Frau.des.Zeitreisenden.2...
The.Mule.2018.German.UHDBD.2...
The.Rain.S02.COMPLETE.GERMAN...
The.Rain.S02.COMPLETE.GERMAN...
Its.Bruno.S01.COMPLETE.GERMA...
Professor.Marston.and.the.Wo...
Once.Were.Warriors.1994.Germ...
Once.Were.Warriors.1994.Germ...
Supergirl.S04.GERMAN.DL.1080...
Supergirl.S04.GERMAN.DL.720p...
Bull.2016.S03.GERMAN.DL.1080...
Bull.2016.S03.GERMAN.720p.HD...
Extraction.Operation.Condor....
Robin.Hood.2018.German.DL.21...
Frankensteins.Fluch.1957.Ger...
Der.Attentaeter.1954.German....
Der.Attentaeter.1954.German....

 
 
Blade.Runner.2049.3D.2017.German.DL.1080p.BluRay.x264.REAL.RERIP-BluRay3D
Jahr: 2017
Genre: Action, Sci-Fi
Sprache: Deutsch AC3 | Englisch AC3
Laufzeit: 2h 43mn
Bitrate: 3 863 Kbps
Format: MKV
Größe: 4.41 GiB
Release:

Beschreibung:

Im Jahr 2023 wird die Herstellung von Replikanten – künstlichen Menschen, die zum Einsatz in den Weltall-Kolonien gezüchtet werden – nach mehreren schwerwiegenden Vorfällen verboten. Als der brillante Industrielle Niander Wallace (Jared Leto) ein neues, verbessertes Modell, den „Nexus 9“, vorstellt, wird die Produktion 2036 jedoch wieder erlaubt. Um ältere und somit nicht zugelassene Replikanten-Modelle, die sich auf der Erde verstecken, aufzuspüren und zu eliminieren, ist weiterhin die sogenannte „Blade Runner“-Einheit des LAPD im Einsatz, zu der auch K (Ryan Gosling) gehört. Bei seiner Arbeit stößt K auf ein düsteres, gut gehütetes Geheimnis von enormer Sprengkraft, das ihn auf die Spur eines ehemaligen Blade Runners bringt: Rick Deckard (Harrison Ford), der vor 30 Jahren aus Los Angeles verschwand…



Complete name                            : br3d-bladerunner3dre_1080p.mkv
Format                                   : Matroska
Format version                           : Version 4 / Version 2
File size                                : 4.41 GiB
Duration                                 : 2h 43mn
Overall bit rate                         : 3 863 Kbps
Encoded date                             : UTC 2018-02-12 06:03:06
Writing application                      : mkvmerge v14.0.0 ('Flow') 64bit
Writing library                          : libebml v1.3.4 + libmatroska v1.4.5
DURATION                                 : 02:41:04.060000000
NUMBER_OF_FRAMES                         : 36
NUMBER_OF_BYTES                          : 516582
_STATISTICS_WRITING_APP                  : mkvmerge v14.0.0 ('Flow') 64bit
_STATISTICS_WRITING_DATE_UTC             : 2018-02-12 06:03:06
_STATISTICS_TAGS                         : BPS DURATION NUMBER_OF_FRAMES NUMBER_OF_BYTES

Video
ID                                       : 1
Format                                   : AVC
Format/Info                              : Advanced Video Codec
Format profile                           : High@L4.1
MultiView_Count                          : 2
MultiView_Layout                         : Side by Side (left eye first)
Format settings, CABAC                   : Yes
Format settings, ReFrames                : 5 frames
Codec ID                                 : V_MPEG4/ISO/AVC
Duration                                 : 2h 43mn
Bit rate                                 : 2 506 Kbps
Width                                    : 1 920 pixels
Height                                   : 800 pixels
Display aspect ratio                     : 2.40:1
Frame rate mode                          : Constant
Frame rate                               : 23.976 fps
Color space                              : YUV
Chroma subsampling                       : 4:2:0
Bit depth                                : 8 bits
Scan type                                : Progressive
Bits/(Pixel*Frame)                       : 0.068
Stream size                              : 2.86 GiB (65%)
Writing library                          : x264 core 155 r2901 7d0ff22
Encoding settings                        : cabac=1 / ref=5 / deblock=1:-1:-1 / analyse=0x3:0x133 / me=umh / subme=7 / psy=1 / psy_rd=1.00:0.15 / mixed_ref=1 / me_range=16 / chroma_me=1 / trellis=1 / 8x8dct=1 / cqm=0 / deadzone=21,11 / fast_pskip=0 / chroma_qp_offset=-3 / threads=16 / lookahead_threads=2 / sliced_threads=0 / nr=0 / decimate=1 / interlaced=0 / bluray_compat=0 / constrained_intra=0 / bframes=3 / b_pyramid=2 / b_adapt=1 / b_bias=0 / direct=1 / weightb=1 / open_gop=0 / weightp=2 / keyint=250 / keyint_min=23 / scenecut=40 / intra_refresh=0 / rc_lookahead=40 / rc=crf / mbtree=1 / crf=20.0 / qcomp=0.60 / qpmin=0 / qpmax=69 / qpstep=4 / ip_ratio=1.40 / aq=1:1.00
Default                                  : Yes
Forced                                   : No

Audio #1
ID                                       : 2
Format                                   : AC-3
Format/Info                              : Audio Coding 3
Mode extension                           : CM (complete main)
Format settings, Endianness              : Big
Codec ID                                 : A_AC3
Duration                                 : 2h 43mn
Bit rate mode                            : Constant
Bit rate                                 : 640 Kbps
Channel(s)                               : 6 channels
Channel positions                        : Front: L C R, Side: L R, LFE
Sampling rate                            : 48.0 KHz
Bit depth                                : 16 bits
Compression mode                         : Lossy
Stream size                              : 748 MiB (17%)
Language                                 : German
Default                                  : Yes
Forced                                   : No

Audio #2
ID                                       : 3
Format                                   : AC-3
Format/Info                              : Audio Coding 3
Mode extension                           : CM (complete main)
Format settings, Endianness              : Big
Codec ID                                 : A_AC3
Duration                                 : 2h 43mn
Bit rate mode                            : Constant
Bit rate                                 : 640 Kbps
Channel(s)                               : 6 channels
Channel positions                        : Front: L C R, Side: L R, LFE
Sampling rate                            : 48.0 KHz
Bit depth                                : 16 bits
Compression mode                         : Lossy
Stream size                              : 748 MiB (17%)
Language                                 : English
Default                                  : No
Forced                                   : No

Text
ID                                       : 4
Format                                   : VobSub
Muxing mode                              : zlib
Codec ID                                 : S_VOBSUB
Codec ID/Info                            : The same subtitle format used on DVDs
Language                                 : German
Default                                  : Yes
Forced                                   : Yes


Download:
Share Online Share OnlineShare OnlineShare Online
 

Kommentare